<?xml version="1.0" standalone="no"?>
<!DOCTYPE svg PUBLIC "-//W3C//DTD SVG 1.1//EN" "http://www.w3.org/Graphics/SVG/1.1/DTD/svg11.dtd" >
<svg xmlns="http://www.w3.org/2000/svg" xmlns:xlink="http://www.w3.org/1999/xlink" version="1.1">
<metadata>
Created by FontForge 20170731 at Wed Oct 28 20:58:09 2020
 By Aleksey,,,
Copyright 2019 The Karla Project Authors (https://github.com/googlefonts/karla)
</metadata>
<defs>
<font id="Karla-Regular" horiz-adv-x="1200" >
  <font-face 
    font-family="Karla"
    font-weight="400"
    font-stretch="normal"
    units-per-em="2000"
    panose-1="2 11 0 4 3 5 3 3 0 3"
    ascent="1600"
    descent="-400"
    x-height="956"
    cap-height="1256"
    bbox="-266.708 -492 2233 1952"
    underline-thickness="50"
    underline-position="-175"
    unicode-range="U+000D-FB02"
  />
<missing-glyph horiz-adv-x="1031" 
d="M10 1645h1011v-1640h-1011v1640zM0 1655v-1660h1031v1660h-1031zM1021 5q-91 141 -179.5 295t-180.5 318t-192 335t-213.5 345t-245.5 347q139 -228 269 -448t254.5 -427.5t246 -400t241.5 -364.5zM10 5q120 172 241.5 364.5t246 400t254.5 427.5t269 448
q-132 -173 -245.5 -347t-213.5 -345t-192 -335t-180.5 -318t-179.5 -295z" />
    <glyph glyph-name="fi" unicode="fi" horiz-adv-x="1282" 
d="M254 0v1104q0 95 36.5 155.5t98 89.5t137.5 29q41 0 83.5 -6t84.5 -18l-30 -124q-30 12 -59.5 18t-56.5 6q-32 0 -64 -12t-53 -45t-21 -95v-1102h-156zM98 848v108h510v-108h-510zM975 1182q-48 0 -76 27.5t-28 72.5q0 44 28 70t76 26t76 -26t28 -70q0 -45 -28 -72.5
t-76 -27.5zM897 0v958h156v-958h-156z" />
    <glyph glyph-name="fl" unicode="fl" horiz-adv-x="1245" 
d="M254 0v1104q0 95 36.5 155.5t98 89.5t137.5 29q41 0 83.5 -6t84.5 -18l-30 -124q-30 12 -59.5 18t-56.5 6q-32 0 -64 -12t-53 -45t-21 -95v-1102h-156zM98 848v108h510v-108h-510zM887 0v1364h156v-1364h-156z" />
    <glyph glyph-name=".notdef" horiz-adv-x="1031" 
d="M10 1645h1011v-1640h-1011v1640zM0 1655v-1660h1031v1660h-1031zM1021 5q-91 141 -179.5 295t-180.5 318t-192 335t-213.5 345t-245.5 347q139 -228 269 -448t254.5 -427.5t246 -400t241.5 -364.5zM10 5q120 172 241.5 364.5t246 400t254.5 427.5t269 448
q-132 -173 -245.5 -347t-213.5 -345t-192 -335t-180.5 -318t-179.5 -295z" />
    <glyph glyph-name=".null" 
 />
    <glyph glyph-name="nonmarkingreturn" horiz-adv-x="666" 
 />
    <glyph glyph-name="CR" unicode="&#xd;" 
 />
    <glyph glyph-name="space" unicode=" " horiz-adv-x="475" 
 />
    <glyph glyph-name="exclam" unicode="!" horiz-adv-x="555" 
d="M218 352l-20 900h166l-20 -900h-126zM281 -18q-51 0 -84 32t-33 80q0 47 33 80.5t84 33.5q50 0 84.5 -33.5t34.5 -80.5q0 -48 -34.5 -80t-84.5 -32z" />
    <glyph glyph-name="quotedbl" unicode="&#x22;" horiz-adv-x="609" 
d="M412 924l-20 440h160l-22 -440h-118zM78 924l-20 440h160l-22 -440h-118z" />
    <glyph glyph-name="numbersign" unicode="#" horiz-adv-x="1251" 
d="M276 62l30 278h-200l10 106h200l38 358h-200l10 106h202l28 274h146l-28 -274h308l30 274h144l-28 -274h204l-12 -106h-204l-36 -358h204l-12 -106h-204l-30 -278h-146l30 278h-308l-30 -278h-146zM462 446h308l38 358h-308z" />
    <glyph glyph-name="dollar" unicode="$" horiz-adv-x="1261" 
d="M638 -24q-101 0 -191.5 25.5t-160 75.5t-109 125t-39.5 174h152q0 -89 45 -145.5t125 -83.5t184 -27q101 0 168.5 30t101.5 79t34 105q0 75 -47.5 126.5t-136.5 79.5l-128 44v140l196 -64q137 -45 214.5 -123t77.5 -207q0 -88 -53 -169t-161 -133t-272 -52zM570 -182
v1606h122v-1606h-122zM608 584l-102 34q-165 54 -250.5 127t-85.5 203q0 146 117.5 238t340.5 92q203 0 313.5 -89.5t134.5 -236.5h-156q-15 87 -90 138.5t-204 51.5q-141 0 -214.5 -56.5t-73.5 -143.5q0 -69 41 -110t131 -70l98 -36v-142z" />
    <glyph glyph-name="percent" unicode="%" horiz-adv-x="1451" 
d="M222 0l846 1256h162l-846 -1256h-162zM1076 -20q-66 0 -124 32.5t-94 96.5t-36 159q0 94 36 157.5t94 96t124 32.5q69 0 128 -32.5t94.5 -96t35.5 -157.5q0 -95 -35.5 -159t-94.5 -96.5t-128 -32.5zM1076 88q59 0 95.5 43t36.5 137q0 92 -36.5 136t-95.5 44
q-58 0 -94 -44t-36 -136q0 -94 36 -137t94 -43zM376 706q-66 0 -124 32.5t-94 96t-36 157.5t36 157.5t94 96t124 32.5q68 0 127 -32.5t95 -96t36 -157.5t-36 -157.5t-95 -96t-127 -32.5zM376 812q57 0 93.5 43.5t36.5 136.5t-36.5 137.5t-93.5 44.5q-58 0 -94 -44.5
t-36 -137.5t36 -136.5t94 -43.5z" />
    <glyph glyph-name="ampersand" unicode="&#x26;" horiz-adv-x="1829" 
d="M1466 -24q-76 0 -142.5 32.5t-143.5 101.5l-656 578q-72 63 -113 138t-41 156q0 85 47 151.5t134 104.5t207 38q112 0 195.5 -38.5t130 -104t46.5 -147.5q0 -78 -37 -144t-117 -123t-210 -109l-86 82q112 49 172 94.5t83 92t23 97.5q0 72 -55 120t-145 48
q-108 0 -163 -55t-55 -129q0 -54 26 -103.5t86 -102.5l652 -574q41 -34 72.5 -50t77.5 -16q51 0 89.5 38t44.5 126h148q-7 -142 -74.5 -222t-195.5 -80zM670 -24q-106 0 -195.5 28.5t-156 79.5t-103.5 118.5t-37 145.5q0 153 121.5 230t352.5 96l38 -92
q-175 -18 -258.5 -73.5t-83.5 -154.5q0 -65 37.5 -119t109.5 -86.5t177 -32.5q122 0 223.5 50.5t184.5 139t147.5 205t110.5 249.5l110 -60q-49 -152 -121.5 -283.5t-169 -230.5t-218 -154.5t-269.5 -55.5z" />
    <glyph glyph-name="quotesingle" unicode="'" horiz-adv-x="271" 
d="M56 1354h160l-22 -440h-118z" />
    <glyph glyph-name="parenleft" unicode="(" horiz-adv-x="711" 
d="M542 1454l112 -78q-114 -116 -190.5 -240.5t-115 -255.5t-38.5 -266q0 -202 86.5 -394.5t257.5 -365.5l-112 -82q-195 179 -295.5 396t-100.5 446q0 231 100.5 447t295.5 393z" />
    <glyph glyph-name="parenright" unicode=")" horiz-adv-x="711" 
d="M170 -228l-114 82q171 173 258.5 365.5t87.5 394.5q0 135 -39 266t-116 255.5t-191 240.5l114 78q194 -177 295 -393t101 -447q0 -153 -45 -301t-133.5 -285t-217.5 -256z" />
    <glyph glyph-name="asterisk" unicode="*" horiz-adv-x="825" 
d="M166 854l180 176l-234 82l48 106l212 -106l-18 256h120l-18 -256l212 108l48 -108l-232 -80l180 -178l-90 -78l-158 208l-160 -208z" />
    <glyph glyph-name="plus" unicode="+" horiz-adv-x="1054" 
d="M450 982h154v-424h414v-134h-414v-424h-154v424h-414v134h414v424z" />
    <glyph glyph-name="comma" unicode="," horiz-adv-x="418" 
d="M178 -218l-118 58q57 29 96.5 64t51.5 86q-43 5 -73.5 31t-30.5 69q0 42 31.5 72t80.5 30q62 0 100 -45t38 -107q0 -73 -44.5 -143.5t-131.5 -114.5z" />
    <glyph glyph-name="hyphen" unicode="-" horiz-adv-x="696" 
d="M76 514v136h544v-136h-544z" />
    <glyph glyph-name="period" unicode="." horiz-adv-x="357" 
d="M60 93q0 47 33 81t83 34t85 -34t35 -81t-35 -79t-85 -32t-83 32.5t-33 78.5z" />
    <glyph glyph-name="slash" unicode="/" horiz-adv-x="863" 
d="M114 -144l502 1606h160l-506 -1606h-156z" />
    <glyph glyph-name="zero" unicode="0" horiz-adv-x="1187" 
d="M594 -24q-148 0 -258.5 72t-172 217t-61.5 363t61.5 362.5t172 216t258.5 71.5q147 0 258 -71.5t172.5 -216t61.5 -362.5t-61.5 -363t-172.5 -217t-258 -72zM594 120q162 0 246 132.5t84 375.5t-84 375.5t-246 132.5q-160 0 -245 -132.5t-85 -375.5t85 -375.5t245 -132.5
z" />
    <glyph glyph-name="one" unicode="1" horiz-adv-x="661" 
d="M332 1260h126v-1260h-156v1076q-48 -33 -100.5 -50.5t-105.5 -19.5v152q63 9 122.5 33t113.5 69z" />
    <glyph glyph-name="two" unicode="2" horiz-adv-x="1159" 
d="M128 0v186q0 109 35.5 182t100 121t152.5 83l248 98q96 39 144 100t48 152q0 96 -66.5 157t-185.5 61q-118 0 -193.5 -50.5t-86.5 -151.5h-174q7 109 64.5 185t156.5 115.5t231 39.5q121 0 217 -47t151.5 -129.5t55.5 -189.5q0 -97 -36 -169t-102.5 -124t-157.5 -89
l-254 -102q-96 -37 -144 -89t-48 -135v-60h730v-144h-886z" />
    <glyph glyph-name="three" unicode="3" horiz-adv-x="1181" 
d="M594 -24q-94 0 -181.5 26.5t-157 78t-109.5 127.5t-40 176h160q2 -86 46 -145t117.5 -89t164.5 -30q140 0 217 68t77 170q0 65 -32 115t-101.5 78.5t-182.5 28.5h-142v124h96q146 0 230 58t84 160q0 90 -68 152t-194 62q-97 0 -173 -39.5t-103 -144.5h-160q16 117 76 189
t152 104.5t204 32.5q125 0 223 -44t154.5 -121t56.5 -177q0 -99 -56.5 -169.5t-163.5 -108.5q119 -34 194.5 -112t75.5 -200q0 -108 -56.5 -191.5t-160.5 -131t-247 -47.5z" />
    <glyph glyph-name="four" unicode="4" horiz-adv-x="1117" 
d="M710 1274h146v-836h218v-132h-218v-306h-154v306h-650v120zM708 1028l-470 -602h470v602z" />
    <glyph glyph-name="five" unicode="5" horiz-adv-x="1129" 
d="M564 -24q-119 0 -217 43t-157 126.5t-60 204.5h156q0 -114 80.5 -172t197.5 -58q135 0 212.5 82.5t77.5 203.5q0 242 -312 242h-336l54 608h696v-142h-570l32 54l-42 -438l-20 18q48 11 109 15.5t109 4.5q204 0 323 -91t119 -271q0 -122 -55 -219.5t-156.5 -154
t-240.5 -56.5z" />
    <glyph glyph-name="six" unicode="6" horiz-adv-x="1145" 
d="M602 -24q-151 0 -263.5 83t-174.5 225.5t-62 321.5q0 211 63 361.5t180 230.5t279 80q112 0 197.5 -42.5t137 -118.5t61.5 -177h-170q-15 90 -68 143t-154 53q-172 0 -270 -148.5t-98 -405.5q0 -37 2 -85.5t8 -90.5q9 133 61.5 209.5t131.5 108.5t167 32q114 0 204.5 -50
t143 -138.5t52.5 -203.5q0 -116 -54 -203.5t-150.5 -136t-223.5 -48.5zM602 120q114 0 189 67t75 181q0 117 -75 183.5t-189 66.5q-75 0 -134 -32.5t-93.5 -89t-34.5 -128.5q0 -114 75 -181t187 -67z" />
    <glyph glyph-name="seven" unicode="7" horiz-adv-x="939" 
d="M118 0l602 1108h-672v148h856v-144l-578 -1112h-208z" />
    <glyph glyph-name="eight" unicode="8" horiz-adv-x="1229" 
d="M614 -24q-148 0 -261.5 47t-178 129t-64.5 186q0 95 49.5 163t136 104.5t196.5 36.5q29 0 56 -3t58 -11v-46q-100 0 -175 -32.5t-117 -85.5t-42 -114q0 -74 45 -125.5t122.5 -78t174.5 -26.5q162 0 252 52t90 136q0 68 -47.5 112t-130.5 74l-346 132q-63 24 -127.5 66
t-108.5 105t-44 149q0 97 55 172t158.5 117.5t248.5 42.5q133 0 236.5 -45.5t162.5 -124t59 -178.5q0 -78 -39.5 -144.5t-116 -107t-188.5 -40.5q-27 0 -51.5 3.5t-54.5 12.5v50q81 0 146 27.5t103.5 76.5t38.5 114q0 62 -37.5 110.5t-104 76t-154.5 27.5
q-85 0 -152.5 -26.5t-106.5 -71t-39 -98.5q0 -67 45.5 -107.5t126.5 -70.5l346 -132q138 -52 212 -123t74 -193q0 -99 -60 -175.5t-173 -119.5t-273 -43z" />
    <glyph glyph-name="nine" unicode="9" horiz-adv-x="1160" 
d="M568 -24q-124 0 -220.5 51t-152 140.5t-55.5 204.5h162q3 -115 72.5 -183.5t189.5 -68.5q118 0 191.5 68t108 192.5t34.5 293.5q0 39 -2 72.5t-8 75.5q-13 -108 -62 -179.5t-125.5 -107t-172.5 -35.5q-112 0 -201.5 50.5t-142 139t-52.5 202.5q0 117 53.5 204
t149.5 134.5t223 47.5q108 0 199.5 -44t158.5 -126.5t104.5 -197.5t37.5 -258q0 -207 -52.5 -359t-161 -234.5t-276.5 -82.5zM558 638q74 0 134 33t95 89t35 126q0 116 -76.5 183t-187.5 67q-114 0 -189 -67t-75 -183q0 -115 75 -181.5t189 -66.5z" />
    <glyph glyph-name="colon" unicode=":" horiz-adv-x="461" 
d="M112 159q0 47 33 81t83 34t85 -34t35 -81t-35 -79t-85 -32t-83 32.5t-33 78.5zM112 771q0 47 33 81t83 34t85 -34t35 -81t-35 -79t-85 -32t-83 32.5t-33 78.5z" />
    <glyph glyph-name="semicolon" unicode=";" horiz-adv-x="522" 
d="M232 -218l-118 58q57 29 96.5 64t51.5 86q-43 5 -73.5 31t-30.5 69q0 42 31.5 72t80.5 30q62 0 100 -45t38 -107q0 -73 -44.5 -143.5t-131.5 -114.5zM164 771q0 47 33 81t83 34t85 -34t35 -81t-35 -79t-85 -32t-83 32.5t-33 78.5z" />
    <glyph glyph-name="less" unicode="&#x3c;" horiz-adv-x="906" 
d="M712 1142l102 -120l-622 -444v64l622 -440l-102 -122l-630 462v136z" />
    <glyph glyph-name="equal" unicode="=" horiz-adv-x="975" 
d="M158 368h658v-134h-658v134zM158 752h658v-136h-658v136z" />
    <glyph glyph-name="greater" unicode="&#x3e;" horiz-adv-x="906" 
d="M196 80l-102 122l618 440v-64l-618 444l102 120l630 -464v-136z" />
    <glyph glyph-name="question" unicode="?" horiz-adv-x="997" 
d="M354 320v90q0 87 18.5 143t61.5 97t118 82q67 36 107 67t57.5 67t17.5 88q0 78 -63.5 130t-174.5 52q-123 0 -188 -48.5t-82 -135.5h-166q14 146 122.5 236t309.5 90q128 0 220.5 -44.5t142 -119t49.5 -164.5q0 -103 -52 -172.5t-168 -131.5q-67 -37 -105.5 -68.5
t-54.5 -72t-16 -105.5v-80h-154zM434 -24q-50 0 -83 32.5t-33 78.5q0 47 32.5 81t82.5 34t85.5 -33.5t35.5 -80.5q0 -46 -35 -79t-85 -33z" />
    <glyph glyph-name="at" unicode="@" horiz-adv-x="1877" 
d="M1088 -360q-216 0 -391.5 60t-301.5 169.5t-193.5 258.5t-67.5 327q0 176 65.5 326t183.5 261.5t278.5 173.5t350.5 62q177 0 319 -53t243.5 -148t155.5 -220.5t54 -269.5q0 -121 -36 -218.5t-97.5 -167.5t-138.5 -107.5t-159 -37.5t-135 37.5t-62 104.5l-6 30
q-34 -70 -94 -121t-158 -51q-85 0 -158.5 43t-118.5 122t-45 188q0 96 36 179.5t98.5 147t142 99t167.5 35.5q120 0 190 -72t70 -218v-304q0 -54 18.5 -79t58.5 -25q57 0 119 49t105 142t43 224q0 161 -73 285.5t-208.5 196t-323.5 71.5q-164 0 -297.5 -55t-229 -152
t-147 -224.5t-51.5 -273.5q0 -198 95.5 -348.5t273.5 -235.5t425 -85v-126zM920 182q79 0 131.5 48.5t96.5 135.5v214q0 82 -29 125t-97 43q-67 0 -136 -41.5t-115.5 -118t-46.5 -180.5q0 -110 55.5 -168t140.5 -58z" />
    <glyph glyph-name="A" unicode="A" horiz-adv-x="1149" 
d="M52 0l432 1256h190l422 -1256h-164l-106 322h-500l-110 -322h-164zM366 444h420l-210 622z" />
    <glyph glyph-name="B" unicode="B" horiz-adv-x="1243" 
d="M202 0v1256h470q138 0 229 -45.5t136 -120t45 -162.5q0 -108 -59.5 -187.5t-178.5 -108.5q77 -12 135.5 -54.5t91.5 -104t33 -131.5q0 -64 -21.5 -125t-71.5 -110t-133 -78t-206 -29h-470zM358 136h312q143 0 205.5 60t62.5 154q0 95 -68 152.5t-200 57.5h-312v-424z
M358 1122v-428h308q117 0 186.5 57.5t69.5 162.5q0 98 -67.5 153t-186.5 55h-310z" />
    <glyph glyph-name="C" unicode="C" horiz-adv-x="1226" 
d="M638 -24q-166 0 -286 83.5t-185 232t-65 344.5q0 209 70.5 352t192 216.5t273.5 73.5q201 0 323.5 -100.5t168.5 -261.5l-168 -34q-39 117 -124.5 186.5t-199.5 69.5q-99 0 -182.5 -56.5t-134.5 -168.5t-51 -277q0 -150 40.5 -267t122 -184t205.5 -67q149 0 236.5 80
t87.5 210h170q0 -135 -62 -231.5t-173.5 -148.5t-258.5 -52z" />
    <glyph glyph-name="D" unicode="D" horiz-adv-x="1320" 
d="M202 1256h368q190 0 330 -77.5t217 -218.5t77 -332q0 -189 -77 -330t-217 -219.5t-330 -78.5h-368v1256zM358 1118v-982h212q142 0 244.5 64t158 175.5t55.5 252.5q0 142 -55.5 252.5t-158 174t-244.5 63.5h-212z" />
    <glyph glyph-name="E" unicode="E" horiz-adv-x="1124" 
d="M200 0v1256h774v-134h-618v-422h582v-134h-582v-430h618v-136h-774z" />
    <glyph glyph-name="F" unicode="F" horiz-adv-x="1048" 
d="M202 0v1256h764v-134h-608v-418h566v-134h-566v-570h-156z" />
    <glyph glyph-name="G" unicode="G" horiz-adv-x="1288" 
d="M644 -24q-150 0 -273 78t-196 221t-73 339q0 163 47 287t129 208t188.5 126.5t225.5 42.5q147 0 258 -60.5t190 -191.5l-148 -52q-67 83 -143.5 122.5t-162.5 39.5q-113 0 -208 -63t-152.5 -180t-57.5 -279q0 -144 47 -255.5t133.5 -175t205.5 -63.5q91 0 163.5 42
t114.5 126.5t42 213.5h48q0 -160 -38 -278t-121.5 -183t-218.5 -65zM1002 0l-28 296v210l-316 10v106h468v-622h-124z" />
    <glyph glyph-name="H" unicode="H" horiz-adv-x="1337" 
d="M202 1256h156v-554h622v554h154v-1256h-154v568h-622v-568h-156v1256z" />
    <glyph glyph-name="I" unicode="I" horiz-adv-x="560" 
d="M202 0v1256h156v-1256h-156z" />
    <glyph glyph-name="J" unicode="J" horiz-adv-x="807" 
d="M16 62v162q71 -46 142 -71t138 -25q105 0 149.5 62t44.5 174v892h156v-892q0 -137 -41.5 -222.5t-118 -125.5t-180.5 -40q-81 0 -152.5 24.5t-137.5 61.5z" />
    <glyph glyph-name="K" unicode="K" horiz-adv-x="1215" 
d="M924 1256h216l-802 -826v220zM564 726l610 -726h-204l-518 624zM202 1256h158v-1256h-158v1256z" />
    <glyph glyph-name="L" unicode="L" horiz-adv-x="935" 
d="M358 1256v-1120h560v-136h-716v1256h156z" />
    <glyph glyph-name="M" unicode="M" horiz-adv-x="1694" 
d="M202 1256h224l432 -868h-16l432 868h218v-1256h-158v1094h28l-460 -936h-104l-458 930h18v-1088h-156v1256z" />
    <glyph glyph-name="N" unicode="N" horiz-adv-x="1368" 
d="M200 1256h186l638 -1034h-14v1034h156v-1256h-174l-660 1068h24v-1068h-156v1256z" />
    <glyph glyph-name="O" unicode="O" horiz-adv-x="1291" 
d="M646 -24q-156 0 -279 72t-194 216.5t-71 361.5q0 220 71 364.5t194 216t279 71.5t279 -72t194 -217t71 -363q0 -219 -71 -363.5t-194 -215.5t-279 -71zM646 120q177 0 279.5 129t102.5 379q0 245 -102.5 377.5t-279.5 132.5q-175 0 -278.5 -133t-103.5 -379
q0 -249 103.5 -377.5t278.5 -128.5z" />
    <glyph glyph-name="P" unicode="P" horiz-adv-x="1107" 
d="M198 0v1256h404q207 0 316.5 -104.5t109.5 -283.5q0 -177 -109.5 -280.5t-316.5 -103.5h-246v-484h-158zM356 620h246q131 0 198.5 67t67.5 181q0 116 -67.5 185t-198.5 69h-246v-502z" />
    <glyph glyph-name="Q" unicode="Q" horiz-adv-x="1303" 
d="M646 -24q-156 0 -279 72t-194 216.5t-71 361.5q0 220 71 364.5t194 216t279 71.5t279 -72t194 -217t71 -363q0 -219 -71 -363.5t-194 -215.5t-279 -71zM1022 -334q-88 0 -159 45.5t-131 132.5l-130 186l140 44l116 -166q33 -45 68.5 -63.5t69.5 -20.5q53 0 98 14t96 38
v-172q-45 -19 -86 -28.5t-82 -9.5zM646 120q177 0 279.5 129t102.5 379q0 245 -102.5 377.5t-279.5 132.5q-175 0 -278.5 -133t-103.5 -379q0 -249 103.5 -377.5t278.5 -128.5z" />
    <glyph glyph-name="R" unicode="R" horiz-adv-x="1225" 
d="M202 0v1256h438q215 0 325.5 -102.5t110.5 -269.5q0 -165 -110.5 -267.5t-325.5 -102.5h-282v-514h-156zM906 0l-360 570h170l392 -570h-202zM358 624h270q141 0 214.5 69.5t73.5 180.5q0 114 -70.5 181t-205.5 67h-282v-498z" />
    <glyph glyph-name="S" unicode="S" horiz-adv-x="1209" 
d="M604 -24q-126 0 -231 45.5t-169 134.5t-66 220h152q0 -88 43 -144.5t114 -84t155 -27.5q91 0 158 29t103.5 76.5t36.5 104.5q0 80 -49 129.5t-145 80.5l-222 78q-156 56 -236 128t-80 202q0 146 112.5 238t319.5 92q192 0 300 -88.5t124 -237.5h-154q-15 87 -81.5 135.5
t-188.5 48.5q-124 0 -193 -55t-69 -139q0 -69 43.5 -109.5t136.5 -72.5l260 -90q135 -45 213.5 -126t78.5 -210q0 -100 -53.5 -181t-157.5 -129t-255 -48z" />
    <glyph glyph-name="T" unicode="T" horiz-adv-x="1001" 
d="M12 1122v134h978v-134h-447l35 36v-1158h-156v1158l35 -36h-445z" />
    <glyph glyph-name="U" unicode="U" horiz-adv-x="1306" 
d="M174 1256h156v-802q0 -177 89 -255.5t233 -78.5q143 0 231.5 78.5t88.5 255.5v802h156v-802q0 -158 -58.5 -264.5t-165.5 -160t-252 -53.5t-252.5 53.5t-166.5 160t-59 264.5v802z" />
    <glyph glyph-name="V" unicode="V" horiz-adv-x="1125" 
d="M552 166l372 1090h166l-448 -1256h-162l-444 1256h166l370 -1090h-20z" />
    <glyph glyph-name="W" unicode="W" horiz-adv-x="1788" 
d="M28 1256h176l326 -1118h-46l334 988h106l330 -980h-44l374 1110h174l-444 -1256h-164l-290 852h30l-300 -852h-164z" />
    <glyph glyph-name="X" unicode="X" horiz-adv-x="1283" 
d="M98 0l442 624l-446 632h188l362 -512l332 512h190l-436 -630l452 -626h-192l-364 502l-340 -502h-188z" />
    <glyph glyph-name="Y" unicode="Y" horiz-adv-x="1097" 
d="M18 1256h188l360 -610h-40l366 610h186l-454 -740v-516h-158v516z" />
    <glyph glyph-name="Z" unicode="Z" horiz-adv-x="1183" 
d="M146 0v140l770 1026v-58l-770 6v142h922v-140l-746 -994l-12 26l758 -6v-142h-922z" />
    <glyph glyph-name="bracketleft" unicode="[" horiz-adv-x="632" 
d="M202 -202v1662h394v-138h-238v-1386h238v-138h-394z" />
    <glyph glyph-name="backslash" unicode="\" horiz-adv-x="863" 
d="M90 1462l502 -1606h160l-506 1606h-156z" />
    <glyph glyph-name="bracketright" unicode="]" horiz-adv-x="568" 
d="M366 -202v1662h-394v-138h238v-1386h-238v-138h394z" />
    <glyph glyph-name="asciicircum" unicode="^" horiz-adv-x="892" 
d="M42 490l350 682h122l350 -682h-174l-266 556h58l-264 -556h-176z" />
    <glyph glyph-name="underscore" unicode="_" horiz-adv-x="1449" 
d="M110 0v136h1232v-136h-1232z" />
    <glyph glyph-name="grave" unicode="`" horiz-adv-x="648" 
d="M469 1125l-367 325l109 89l336 -351z" />
    <glyph glyph-name="a" unicode="a" horiz-adv-x="1101" 
d="M794 0l-20 210v410q0 129 -55 185.5t-165 56.5q-62 0 -112.5 -18t-80 -55.5t-29.5 -96.5h-174q0 104 51 167.5t140.5 92t204.5 28.5q110 0 195 -37t133 -117.5t48 -209.5v-616h-136zM468 -24q-118 0 -195 42t-115 109t-38 141q0 97 48.5 158t132.5 89.5t189 28.5
q75 0 150.5 -15t147.5 -41v-98q-60 24 -135.5 38t-138.5 14q-96 0 -162 -39.5t-66 -134.5q0 -70 50.5 -120t161.5 -50q78 0 140.5 36.5t99 91.5t36.5 110h38q0 -96 -41.5 -178t-118.5 -132t-184 -50z" />
    <glyph glyph-name="b" unicode="b" horiz-adv-x="1185" 
d="M640 -24q-96 0 -173.5 50t-123 146.5t-45.5 235.5h60q0 -93 38.5 -158.5t99.5 -99.5t128 -34q77 0 141 44t102.5 126t38.5 196q0 112 -38 192.5t-102.5 124t-143.5 43.5q-68 0 -128.5 -33.5t-98 -98.5t-37.5 -160h-60q0 136 44.5 232t123.5 147t184 51q113 0 207.5 -60.5
t151.5 -172.5t57 -265q0 -154 -58 -267.5t-155 -176t-213 -62.5zM202 0v1364h156v-1140l-46 -224h-110z" />
    <glyph glyph-name="c" unicode="c" horiz-adv-x="1032" 
d="M538 -24q-115 0 -214.5 62t-160.5 175t-61 267q0 158 61 270t160.5 171t214.5 59q81 0 145.5 -24.5t112.5 -67.5t79.5 -97.5t46.5 -114.5l-160 -14q-25 83 -83.5 131.5t-142.5 48.5q-71 0 -133.5 -40.5t-101.5 -121t-39 -200.5q0 -111 35.5 -192.5t97.5 -126.5t141 -45
q111 0 168.5 54.5t57.5 151.5h160q0 -100 -47 -178t-133.5 -123t-203.5 -45z" />
    <glyph glyph-name="d" unicode="d" horiz-adv-x="1185" 
d="M544 -24q-116 0 -213 62.5t-155 176t-58 267.5q0 153 57 265t151.5 172.5t207.5 60.5q105 0 184.5 -51t123.5 -147t44 -232h-60q0 95 -37.5 160t-97.5 98.5t-129 33.5q-78 0 -142.5 -43.5t-103 -124t-38.5 -192.5q0 -114 38.5 -196t103 -126t142.5 -44q65 0 125.5 34
t99.5 99.5t39 158.5h60q0 -139 -45.5 -235.5t-123 -146.5t-173.5 -50zM852 0l-26 224v1140h156v-1364h-130z" />
    <glyph glyph-name="e" unicode="e" horiz-adv-x="1027" 
d="M534 -24q-124 0 -221.5 63.5t-154 176.5t-56.5 260q0 157 56 270t153.5 173.5t222.5 60.5q109 0 186 -44t124 -119t65.5 -169.5t10.5 -195.5h-692v96h589l-46 -30q3 59 -6.5 118t-35.5 108.5t-73 79.5t-120 30q-92 0 -154 -47t-93 -123.5t-31 -165.5v-64
q0 -100 30.5 -179t91.5 -125t154 -46t153 45t73 133h162q-15 -95 -68 -163.5t-135 -105.5t-185 -37z" />
    <glyph glyph-name="f" unicode="f" horiz-adv-x="685" 
d="M254 0v1104q0 95 36.5 155.5t98 89.5t137.5 29q41 0 83.5 -6t84.5 -18l-30 -124q-30 12 -59.5 18t-56.5 6q-32 0 -64 -12t-53 -45t-21 -95v-1102h-156zM98 848v108h510v-108h-510z" />
    <glyph glyph-name="g" unicode="g" horiz-adv-x="1129" 
d="M540 -492q-147 0 -255 41.5t-167.5 111t-59.5 153.5q0 111 81.5 169.5t210.5 58.5l86 -54q-108 0 -167 -45t-59 -123t84 -132t246 -54q120 0 210.5 34.5t141 90t50.5 119.5q0 45 -33 77.5t-101 32.5h-372q-97 0 -167.5 29.5t-108.5 77.5t-38 105q0 60 34 102t88.5 64
t117.5 22l30 -58q-30 0 -60.5 -13.5t-51 -40t-20.5 -66.5q0 -46 38 -77t138 -31h372q135 0 212.5 -57t77.5 -159q0 -94 -67 -180.5t-192 -142t-299 -55.5zM568 280q-110 0 -198.5 44t-140 123t-51.5 183q0 105 51.5 184t140 122.5t198.5 43.5q107 0 194.5 -43.5
t139.5 -122.5t52 -184q0 -104 -52 -183t-139.5 -123t-194.5 -44zM568 392q110 0 171 68t61 170q0 105 -61 170.5t-171 65.5q-109 0 -171.5 -65.5t-62.5 -170.5q0 -102 62.5 -170t171.5 -68zM882 828l-74 30q0 84 33 147.5t94 99t145 35.5l-12 -154q-90 0 -138 -38.5
t-48 -119.5z" />
    <glyph glyph-name="h" unicode="h" horiz-adv-x="1207" 
d="M882 0v562q0 137 -65.5 208.5t-178.5 71.5q-86 0 -149 -47t-97 -134.5t-34 -208.5h-60q0 167 44 285t128.5 180.5t205.5 62.5q113 0 193.5 -50.5t123.5 -144.5t43 -223v-562h-154zM202 0v1364h156v-1364h-156z" />
    <glyph glyph-name="i" unicode="i" horiz-adv-x="596" 
d="M290 1182q-48 0 -76 27.5t-28 72.5q0 44 28 70t76 26t76 -26t28 -70q0 -45 -28 -72.5t-76 -27.5zM212 0v958h156v-958h-156z" />
    <glyph glyph-name="j" unicode="j" horiz-adv-x="627" 
d="M320 1182q-48 0 -75 27.5t-27 72.5q0 44 27 70t75 26t76 -26t28 -70q0 -45 -28 -72.5t-76 -27.5zM96 -492q-69 0 -134 18.5t-134 55.5l8 136q59 -33 115.5 -53.5t116.5 -20.5q84 0 130 54t46 168v1094h154v-1096q0 -190 -83.5 -273t-218.5 -83z" />
    <glyph glyph-name="k" unicode="k" horiz-adv-x="1127" 
d="M202 0v1364h156v-1364h-156zM334 548l488 408h218l-706 -574v166zM870 0l-454 604l158 28l488 -632h-192z" />
    <glyph glyph-name="l" unicode="l" horiz-adv-x="560" 
d="M202 0v1364h156v-1364h-156z" />
    <glyph glyph-name="m" unicode="m" horiz-adv-x="1871" 
d="M1546 0v562q0 137 -65.5 208.5t-176.5 71.5q-130 0 -199 -100.5t-69 -277.5h-72q0 129 25.5 226t74.5 161.5t119 96.5t159 32q113 0 193.5 -50.5t123.5 -144.5t43 -223v-562h-156zM202 0v956h134l18 -192q45 104 126.5 160t195.5 56q113 0 193.5 -50.5t123.5 -144.5
t43 -223v-562h-154v562q0 137 -65.5 208.5t-178.5 71.5q-86 0 -149 -47t-97 -134.5t-34 -208.5v-452h-156z" />
    <glyph glyph-name="n" unicode="n" horiz-adv-x="1207" 
d="M882 0v562q0 137 -65.5 208.5t-178.5 71.5q-86 0 -149 -47t-97 -134.5t-34 -208.5h-60q0 167 44 285t128.5 180.5t205.5 62.5q113 0 193.5 -50.5t123.5 -144.5t43 -223v-562h-154zM202 0v956h134l22 -220v-736h-156z" />
    <glyph glyph-name="o" unicode="o" horiz-adv-x="1093" 
d="M548 -24q-129 0 -229.5 57t-158.5 169t-58 276q0 165 58 276.5t158.5 168.5t229.5 57q128 0 228.5 -57t158 -168.5t57.5 -276.5q0 -164 -57.5 -276t-158 -169t-228.5 -57zM544 112q93 0 158 44.5t98.5 126.5t33.5 195q0 171 -71 269.5t-211 98.5q-94 0 -158.5 -44.5
t-98 -127t-33.5 -196.5q0 -169 71.5 -267.5t210.5 -98.5z" />
    <glyph glyph-name="p" unicode="p" horiz-adv-x="1169" 
d="M636 -24q-105 0 -182.5 48t-119.5 140.5t-42 225.5h66q0 -89 37 -150t96.5 -92.5t126.5 -31.5q72 0 138 41.5t108 122.5t42 200q0 114 -38.5 195t-103.5 124t-144 43q-68 0 -128 -33t-97 -96.5t-37 -156.5h-66q0 139 46 233.5t125 142.5t177 48q112 0 209 -60t157 -172
t60 -268q0 -158 -60.5 -271t-158.5 -173t-211 -60zM202 -470v1426h130l26 -224v-1202h-156z" />
    <glyph glyph-name="q" unicode="q" horiz-adv-x="1169" 
d="M534 -24q-114 0 -212.5 60t-159 173t-60.5 271q0 156 60 268t157.5 172t208.5 60q98 0 177.5 -48t126 -142.5t46.5 -233.5h-68q0 93 -37 156.5t-97 96.5t-128 33q-78 0 -143 -43t-104 -124t-39 -195q0 -119 41.5 -200t107.5 -122.5t139 -41.5q66 0 125.5 31t97 92
t37.5 151h46q0 -124 -37 -217t-109 -145t-176 -52zM1058 -492q-136 38 -192 117t-56 223v884l48 224h106v-1118q0 -68 13 -107t45 -61.5t88 -41.5z" />
    <glyph glyph-name="r" unicode="r" horiz-adv-x="723" 
d="M202 0v958h156v-958h-156zM310 432q0 182 35 302.5t102.5 180t164.5 59.5q32 0 58.5 -4.5t53.5 -13.5l-10 -154q-28 9 -61 15.5t-59 6.5q-85 0 -137 -48.5t-75.5 -136.5t-23.5 -207h-48z" />
    <glyph glyph-name="s" unicode="s" horiz-adv-x="1051" 
d="M546 -24q-139 0 -232 39.5t-141 109t-51 159.5h150q5 -91 73.5 -136.5t186.5 -45.5q62 0 114 20t83 55t31 79q0 56 -41 88t-131 56l-186 60q-121 38 -185.5 104.5t-64.5 159.5q0 116 102 186t268 70q176 0 273 -72t101 -180h-154q-9 63 -64 95.5t-156 32.5
q-97 0 -151.5 -43.5t-54.5 -96.5q0 -99 170 -146l190 -64q123 -37 188.5 -97t65.5 -153q0 -72 -47 -136t-133 -104t-204 -40z" />
    <glyph glyph-name="t" unicode="t" horiz-adv-x="752" 
d="M496 -24q-78 0 -140 30t-98 90t-36 150v976h154v-972q0 -148 138 -148q41 0 79.5 9t86.5 27l22 -112q-51 -22 -101.5 -36t-104.5 -14zM68 848v108h610v-108h-610z" />
    <glyph glyph-name="u" unicode="u" horiz-adv-x="1211" 
d="M852 958h156v-958h-156v958zM174 958h156v-596q0 -120 58.5 -182t167.5 -62q90 0 156.5 48t103 132.5t36.5 193.5h58q0 -161 -46.5 -275t-131 -174.5t-198.5 -60.5q-108 0 -189 40t-126 121.5t-45 206.5v608z" />
    <glyph glyph-name="v" unicode="v" horiz-adv-x="1005" 
d="M36 956h178l300 -822h-22l300 822h178l-382 -956h-170z" />
    <glyph glyph-name="w" unicode="w" horiz-adv-x="1449" 
d="M36 956h162l244 -798h-20l238 752h130l236 -754h-18l244 800h156l-314 -956h-152l-232 706h24l-230 -706h-152z" />
    <glyph glyph-name="x" unicode="x" horiz-adv-x="1023" 
d="M52 0l362 478l-362 480h190l274 -362l264 362h190l-364 -480l362 -478h-190l-274 364l-262 -364h-190z" />
    <glyph glyph-name="y" unicode="y" horiz-adv-x="931" 
d="M44 956h174l312 -820h-36l242 820h160l-360 -1148q-45 -144 -120 -222t-192 -78q-63 0 -119.5 18t-116.5 52v144q53 -42 102.5 -60t103.5 -18q60 0 100.5 38t67.5 97.5t46 124.5l28 96z" />
    <glyph glyph-name="z" unicode="z" horiz-adv-x="949" 
d="M106 0v126l564 704h-564v126h740v-126l-556 -704h556v-126h-740z" />
    <glyph glyph-name="braceleft" unicode="{" horiz-adv-x="696" 
d="M680 -276q-155 0 -248 61t-134.5 166.5t-41.5 240.5v182q0 87 -16.5 122.5t-55.5 35.5h-34v152h34q39 0 55.5 35.5t16.5 122.5v184q0 136 41.5 241.5t134.5 166t248 60.5v-138q-147 0 -208.5 -85t-61.5 -247v-186q0 -93 -28.5 -147.5t-75.5 -78.5v-6q47 -24 75.5 -78.5
t28.5 -147.5v-186q0 -162 61.5 -247t208.5 -85v-138z" />
    <glyph glyph-name="bar" unicode="|" horiz-adv-x="560" 
d="M202 -244v1744h156v-1744h-156z" />
    <glyph glyph-name="braceright" unicode="}" horiz-adv-x="696" 
d="M16 -276q155 0 248 61t134.5 166.5t41.5 240.5v182q0 87 16.5 122.5t55.5 35.5h34v152h-34q-39 0 -55.5 35.5t-16.5 122.5v184q0 136 -41.5 241.5t-134.5 166t-248 60.5v-138q147 0 208.5 -85t61.5 -247v-186q0 -93 28.5 -147.5t75.5 -78.5v-6q-47 -24 -75.5 -78.5
t-28.5 -147.5v-186q0 -162 -61.5 -247t-208.5 -85v-138z" />
    <glyph glyph-name="asciitilde" unicode="~" horiz-adv-x="1029" 
d="M192 446l-86 46q33 108 87 165t127 57q36 0 80 -13t120 -43q83 -33 120.5 -43.5t65.5 -10.5q38 0 72.5 28.5t59.5 85.5l84 -54q-36 -109 -94 -159.5t-132 -50.5q-30 0 -76.5 13t-121.5 43q-81 30 -117 42t-65 12q-34 0 -65.5 -26t-58.5 -92z" />
    <glyph glyph-name="uni00A0" unicode="&#xa0;" horiz-adv-x="475" 
 />
    <glyph glyph-name="exclamdown" unicode="&#xa1;" horiz-adv-x="555" 
d="M218 880l-20 -900h166l-20 900h-126zM281 1250q-51 0 -84 -32t-33 -80q0 -47 33 -80.5t84 -33.5q50 0 84.5 33.5t34.5 80.5q0 48 -34.5 80t-84.5 32z" />
    <glyph glyph-name="cent" unicode="&#xa2;" horiz-adv-x="1025" 
d="M470 -210v228h134v-228h-134zM470 942v200h134v-200h-134zM538 -24q-115 0 -214.5 62t-160.5 175t-61 267q0 158 61 270t160.5 171t214.5 59q81 0 145.5 -24.5t112.5 -67.5t79.5 -97.5t46.5 -114.5l-160 -14q-25 83 -83.5 131.5t-142.5 48.5q-71 0 -133.5 -40.5
t-101.5 -121t-39 -200.5q0 -111 35.5 -192.5t97.5 -126.5t141 -45q111 0 168.5 54.5t57.5 151.5h160q0 -100 -47 -178t-133.5 -123t-203.5 -45z" />
    <glyph glyph-name="sterling" unicode="&#xa3;" horiz-adv-x="1129" 
d="M96 90v46q77 0 111.5 44.5t34.5 135.5v548q0 130 41 222.5t123 142t204 49.5q140 0 230 -75.5t114 -224.5h-154q-13 81 -66 119.5t-124 38.5q-99 0 -155.5 -65.5t-56.5 -206.5v-540q0 -123 -63 -178.5t-239 -55.5zM40 0v136h650q96 0 141.5 41.5t58.5 128.5h166
q-9 -141 -90 -223.5t-276 -82.5h-650zM60 534v110h700v-110h-700z" />
    <glyph glyph-name="currency" unicode="&#xa4;" 
d="M600 226q-112 0 -204 55t-147 147.5t-55 205.5q0 111 55 203t147 146.5t204 54.5t203.5 -54.5t146 -146.5t54.5 -203q0 -113 -54.5 -205.5t-146 -147.5t-203.5 -55zM600 372q71 0 130 35t94.5 94.5t35.5 132.5q0 72 -35.5 130.5t-94.5 93t-130 34.5q-72 0 -131 -34.5
t-94 -93t-35 -130.5q0 -73 35 -132.5t94 -94.5t131 -35zM860 814l-80 80l196 194l80 -78zM334 820l-190 188l78 80l190 -188zM866 446l190 -188l-78 -82l-190 190zM334 446l78 -80l-190 -190l-78 82z" />
    <glyph glyph-name="yen" unicode="&#xa5;" horiz-adv-x="1097" 
d="M466 0v516l-448 740h188l360 -610h-40l366 610h186l-454 -740v-516h-158zM208 202v98h676v-98h-676zM208 400v98h676v-98h-676z" />
    <glyph glyph-name="brokenbar" unicode="&#xa6;" horiz-adv-x="560" 
d="M202 710v790h156v-790h-156zM202 -244v790h156v-790h-156z" />
    <glyph glyph-name="section" unicode="&#xa7;" 
d="M639 429q63 0 115 20t83 55.5t31 82.5q0 53 -43.5 84t-129.5 56l-186 60q-121 36 -185 103.5t-64 158.5q0 117 100.5 187.5t269.5 70.5q175 0 272 -72.5t101 -180.5h-154q-7 65 -65.5 97t-144.5 32q-109 0 -162 -44t-53 -99q0 -94 169 -143l190 -64q123 -38 188.5 -97.5
t65.5 -148.5q0 -75 -47 -139.5t-133 -104.5t-204 -40zM563 771q-97 0 -151.5 -45.5t-54.5 -102.5q0 -94 170 -144l190 -63q122 -38 187.5 -98t65.5 -149q0 -74 -45 -139t-133.5 -105t-219.5 -40q-126 0 -217.5 39.5t-140.5 109.5t-51 160h150q2 -90 72 -136t176 -46
q108 0 174 44t66 112q0 54 -43.5 85.5t-129.5 56.5l-185 59q-123 38 -186.5 105t-63.5 160q0 121 101.5 191t268.5 70v-124z" />
    <glyph glyph-name="dieresis" unicode="&#xa8;" horiz-adv-x="747" 
d="M540 1139q-43 0 -73.5 28.5t-30.5 70.5t30.5 72t73.5 30q45 0 75.5 -30t30.5 -72t-30.5 -70.5t-75.5 -28.5zM206 1139q-45 0 -74.5 28.5t-29.5 68.5q0 44 29.5 73t74.5 29t75.5 -29t30.5 -73q0 -40 -30.5 -68.5t-75.5 -28.5z" />
    <glyph glyph-name="copyright" unicode="&#xa9;" horiz-adv-x="1379" 
d="M690 -12q-133 0 -249 50t-204.5 138t-138.5 204t-50 249t50 249t138.5 204.5t204.5 138.5t249 50q132 0 248.5 -50t204.5 -138.5t138 -204.5t50 -249t-50 -249t-138 -204t-204.5 -138t-248.5 -50zM690 71q116 0 217 43.5t177.5 120t120 178t43.5 216.5q0 116 -43.5 217
t-120 178t-177.5 120.5t-217 43.5q-115 0 -216.5 -43.5t-178.5 -120.5t-120.5 -178t-43.5 -217q0 -115 43.5 -216.5t120.5 -178t178.5 -120t216.5 -43.5zM687 227q-103 0 -177.5 51.5t-114.5 143.5t-40 213q0 130 44 218t119 133.5t169 45.5q124 0 199.5 -62t104.5 -162
l-104 -21q-24 73 -76.5 116t-123.5 43q-61 0 -113 -35t-83.5 -104.5t-31.5 -171.5q0 -92 25 -164.5t75.5 -114t127.5 -41.5q92 0 146 49.5t54 129.5h105q0 -125 -84.5 -196t-220.5 -71z" />
    <glyph glyph-name="ordfeminine" unicode="&#xaa;" horiz-adv-x="1101" 
d="M794 0l-20 210v410q0 129 -55 185.5t-165 56.5q-62 0 -112.5 -18t-80 -55.5t-29.5 -96.5h-174q0 104 51 167.5t140.5 92t204.5 28.5q110 0 195 -37t133 -117.5t48 -209.5v-616h-136zM468 -24q-118 0 -195 42t-115 109t-38 141q0 97 48.5 158t132.5 89.5t189 28.5
q75 0 150.5 -15t147.5 -41v-98q-60 24 -135.5 38t-138.5 14q-96 0 -162 -39.5t-66 -134.5q0 -70 50.5 -120t161.5 -50q78 0 140.5 36.5t99 91.5t36.5 110h38q0 -96 -41.5 -178t-118.5 -132t-184 -50z" />
    <glyph glyph-name="guillemotleft" unicode="&#xab;" horiz-adv-x="1143" 
d="M249 502l380 382l-118 75l-409 -429l409 -429l118 75l-380 382v-56zM662 502l380 382l-118 75l-409 -429l409 -429l118 75l-380 382v-56z" />
    <glyph glyph-name="logicalnot" unicode="&#xac;" 
d="M229 634h684v-341h-114v265l38 -45h-608v121z" />
    <glyph glyph-name="uni00AD" unicode="&#xad;" 
d="M76 514v136h544v-136h-544z" />
    <glyph glyph-name="registered" unicode="&#xae;" horiz-adv-x="1379" 
d="M690 -12q-133 0 -249 50t-204.5 138t-138.5 204t-50 249t50 249t138.5 204.5t204.5 138.5t249 50q132 0 248.5 -50t204.5 -138.5t138 -204.5t50 -249t-50 -249t-138 -204t-204.5 -138t-248.5 -50zM690 71q116 0 217 43.5t177.5 120t120 178t43.5 216.5q0 116 -43.5 217
t-120 178t-177.5 120.5t-217 43.5q-115 0 -216.5 -43.5t-178.5 -120.5t-120.5 -178t-43.5 -217q0 -115 43.5 -216.5t120.5 -178t178.5 -120t216.5 -43.5zM867 276l-209 330h99l227 -330h-117zM459 276v727h254q124 0 188 -59.5t64 -155.5q0 -95 -64 -154.5t-188 -59.5h-164
v-298h-90zM549 637h157q82 0 124 40.5t42 104.5q0 66 -40.5 105t-118.5 39h-164v-289z" />
    <glyph glyph-name="macron" unicode="&#xaf;" horiz-adv-x="828" 
d="M102 1298h625v-130h-625v130z" />
    <glyph glyph-name="degree" unicode="&#xb0;" horiz-adv-x="681" 
d="M341 955q-73 0 -134 36t-97 97t-36 134q0 74 36 134t97 96t134 36t133.5 -36t96.5 -96t36 -134q0 -73 -36 -134t-96.5 -97t-133.5 -36zM341 1064q65 0 110.5 46.5t45.5 111.5t-45.5 111t-110.5 46t-111.5 -46t-46.5 -111t46.5 -111.5t111.5 -46.5z" />
    <glyph glyph-name="plusminus" unicode="&#xb1;" horiz-adv-x="975" 
d="M422 1050h130v-332h308v-106h-308v-332h-130v332h-308v106h308v332zM146 120h684v-120h-684v120z" />
    <glyph glyph-name="uni00B2" unicode="&#xb2;" horiz-adv-x="802" 
d="M128.109 508v112.05q0 65.6631 21.3857 109.64t60.2422 72.8926q38.8555 28.916 91.8682 50l149.399 59.0371q57.832 23.4941 86.748 60.2422q28.916 36.7471 28.916 91.5674q0 57.832 -40.0605 94.5791q-40.0605 36.748 -111.749 36.748q-71.085 0 -116.567 -30.4229
q-45.4824 -30.4219 -52.1084 -91.2656h-104.821q4.2168 65.6631 38.8564 111.447q34.6387 45.7832 94.2783 69.5791q59.6387 23.7949 139.158 23.7949q72.8926 0 130.725 -28.3135t91.2656 -78.0127q33.4346 -49.6992 33.4346 -114.158q0 -58.4346 -21.6875 -101.809
q-21.6865 -43.374 -61.7471 -74.6992q-40.0615 -31.3262 -94.8809 -53.6152l-153.015 -61.4473q-57.832 -22.2891 -86.748 -53.6143q-28.916 -31.3262 -28.916 -81.3271v-36.1445h439.765v-86.748h-533.741z" />
    <glyph glyph-name="uni00B3" unicode="&#xb3;" horiz-adv-x="803" 
d="M399.836 493.542q-56.627 0 -109.339 15.9639t-94.5791 46.9883q-41.8682 31.0254 -65.9648 76.8086t-24.0967 106.025h96.3867q1.2041 -51.8076 27.7109 -87.3506q26.5068 -35.542 70.7842 -53.6152q44.2773 -18.0723 99.0977 -18.0723q84.3379 0 130.725 40.9639
q46.3857 40.9648 46.3857 102.411q0 39.1572 -19.2773 69.2783t-61.1455 47.29t-109.941 17.1689h-85.543v74.6992h57.832q87.9531 0 138.557 34.9404q50.6025 34.9404 50.6025 96.3867q0 54.2178 -40.9639 91.5674q-40.9648 37.3496 -116.869 37.3496
q-58.4346 0 -104.219 -23.7959q-45.7832 -23.7949 -62.0488 -87.0488h-96.3867q9.63867 70.4824 45.7842 113.856q36.1445 43.374 91.5674 62.9531q55.4219 19.5781 122.893 19.5781q75.3027 0 134.339 -26.5059q59.0371 -26.5068 93.0742 -72.8926
q34.0361 -46.3867 34.0361 -106.628q0 -59.6396 -34.0361 -102.109q-34.0371 -42.4707 -98.4951 -65.3623q71.6875 -20.4824 117.17 -67.4707t45.4824 -120.483q0 -65.0615 -34.0371 -115.363q-34.0361 -50.3018 -96.6875 -78.916q-62.6514 -28.6152 -148.797 -28.6152z" />
    <glyph glyph-name="acute" unicode="&#xb4;" horiz-adv-x="648" 
d="M180 1125l-78 63l336 351l109 -89z" />
    <glyph glyph-name="uni00B5" unicode="&#xb5;" horiz-adv-x="1211" 
d="M852 958h156v-958h-156v958zM174 958h156v-596q0 -120 58.5 -182t167.5 -62q90 0 156.5 48t103 132.5t36.5 193.5h58q0 -161 -46.5 -275t-131 -174.5t-198.5 -60.5q-108 0 -189 40t-126 121.5t-45 206.5v608zM174 -406v1364h156v-1364h-156z" />
    <glyph glyph-name="paragraph" unicode="&#xb6;" 
d="M538 484q-208 0 -317 103.5t-109 281.5t109 282.5t317 104.5h385v-138h-293v-634h-92zM557 -252v1508h122v-1508h-122zM834 -252v1508h121v-1508h-121z" />
    <glyph glyph-name="periodcentered" unicode="&#xb7;" horiz-adv-x="357" 
d="M60 510q0 47 33 81t83 34t85 -34t35 -81t-35 -79t-85 -32t-83 32.5t-33 78.5z" />
    <glyph glyph-name="cedilla" unicode="&#xb8;" horiz-adv-x="624" 
d="M102 -356l27 66q74 -39 133 -44.5t94.5 14.5t38.5 55t-26.5 61t-75.5 44t-95 29l71 187l89 -8l-67 -175l-36 57q90 -20 151 -49t91 -67t26 -86q-4 -57 -48.5 -91.5t-110.5 -45t-136 2.5t-126 50z" />
    <glyph glyph-name="uni00B9" unicode="&#xb9;" horiz-adv-x="517" 
d="M238.002 1260.04h75.9053v-759.045h-93.9775v648.201q-28.916 -19.8799 -60.543 -30.4229q-31.627 -10.542 -63.5547 -11.7471v91.5674q37.9521 5.42188 73.7959 19.8799t68.374 41.5664z" />
    <glyph glyph-name="ordmasculine" unicode="&#xba;" horiz-adv-x="1093" 
d="M548 -24q-129 0 -229.5 57t-158.5 169t-58 276q0 165 58 276.5t158.5 168.5t229.5 57q128 0 228.5 -57t158 -168.5t57.5 -276.5q0 -164 -57.5 -276t-158 -169t-228.5 -57zM544 112q93 0 158 44.5t98.5 126.5t33.5 195q0 171 -71 269.5t-211 98.5q-94 0 -158.5 -44.5
t-98 -127t-33.5 -196.5q0 -169 71.5 -267.5t210.5 -98.5z" />
    <glyph glyph-name="guillemotright" unicode="&#xbb;" horiz-adv-x="1143" 
d="M895 502l-380 382l118 75l409 -429l-409 -429l-118 75l380 382v-56zM482 502l-380 382l118 75l409 -429l-409 -429l-118 75l380 382v-56z" />
    <glyph glyph-name="onequarter" unicode="&#xbc;" horiz-adv-x="1774" 
d="M239 1359h75v-759h-94v648q-29 -20 -60.5 -30.5t-63.5 -11.5v92q38 5 74 19.5t69 41.5zM250.292 -16.4229l953.229 1365.35h122.52l-956.292 -1365.35h-119.457zM1512 767h87v-503h132v-80h-132v-184h-92v184h-392v73zM1510 619l-282 -362h282v362z" />
    <glyph glyph-name="onehalf" unicode="&#xbd;" horiz-adv-x="1865" 
d="M239 1359h75v-759h-94v648q-29 -20 -60.5 -30.5t-63.5 -11.5v92q38 5 74 19.5t69 41.5zM250.292 -16.4229l953.229 1365.35h122.52l-956.292 -1365.35h-119.457zM1191 0v112q0 98 47.5 149.5t126.5 82.5l149 60q58 23 86.5 60t28.5 92q0 58 -40 94.5t-111 36.5
q-72 0 -117 -30.5t-52 -91.5h-104q4 66 38.5 111.5t94 69.5t139.5 24q73 0 130.5 -28t91 -77.5t33.5 -114.5q0 -88 -47.5 -142.5t-130.5 -88.5l-153 -61q-58 -22 -87 -53.5t-29 -81.5v-36h440v-87h-534z" />
    <glyph glyph-name="threequarters" unicode="&#xbe;" horiz-adv-x="2059" 
d="M400 576q-76 0 -143 28t-109 83t-42 134h96q2 -77 59 -118t139 -41q84 0 130.5 41.5t46.5 102.5q0 59 -44 96.5t-146 37.5h-86v75h58q88 0 138.5 35t50.5 96q0 54 -41 91.5t-117 37.5q-58 0 -103.5 -24t-62.5 -87h-96q14 105 86.5 151t173.5 46q113 0 187 -58t74 -149
q0 -59 -34 -101.5t-98 -65.5q71 -21 116.5 -67.5t45.5 -120.5q0 -97 -75 -160t-204 -63zM535.292 -16.4229l953.229 1365.35h122.52l-956.292 -1365.35h-119.457zM1797 767h87v-503h132v-80h-132v-184h-92v184h-392v73zM1795 619l-282 -362h282v362z" />
    <glyph glyph-name="questiondown" unicode="&#xbf;" horiz-adv-x="997" 
d="M610 906v-90q0 -87 -18.5 -143t-61.5 -97t-118 -82q-67 -36 -107 -67t-57.5 -67t-17.5 -88q0 -78 63.5 -130t174.5 -52q123 0 188 48.5t82 135.5h166q-14 -146 -122.5 -236t-309.5 -90q-128 0 -220.5 44.5t-142 119t-49.5 164.5q0 103 52 172.5t168 131.5
q67 37 105.5 68.5t54.5 72t16 105.5v80h154zM530 1250q50 0 83 -32.5t33 -78.5q0 -47 -32.5 -81t-82.5 -34t-85.5 33.5t-35.5 80.5q0 46 35 79t85 33z" />
    <glyph glyph-name="Agrave" unicode="&#xc0;" horiz-adv-x="1149" 
d="M52 0l432 1256h190l422 -1256h-164l-106 322h-500l-110 -322h-164zM366 444h420l-210 622zM729 1425l-367 325l109 89l336 -351z" />
    <glyph glyph-name="Aacute" unicode="&#xc1;" horiz-adv-x="1149" 
d="M52 0l432 1256h190l422 -1256h-164l-106 322h-500l-110 -322h-164zM366 444h420l-210 622zM522 1419l-78 63l336 351l109 -89z" />
    <glyph glyph-name="Acircumflex" unicode="&#xc2;" horiz-adv-x="1149" 
d="M52 0l432 1256h190l422 -1256h-164l-106 322h-500l-110 -322h-164zM366 444h420l-210 622zM357 1382l-94 74l317 311l318 -311l-93 -74l-252 255h54z" />
    <glyph glyph-name="Atilde" unicode="&#xc3;" horiz-adv-x="1149" 
d="M52 0l432 1256h190l422 -1256h-164l-106 322h-500l-110 -322h-164zM366 444h420l-210 622zM330 1411l-64 41q24 100 70.5 153t107.5 53q26 0 54.5 -9.5t91.5 -42.5q62 -32 86 -42t46 -10q29 0 57 25t49 79l68 -46q-15 -63 -41.5 -108t-60 -69t-68.5 -24q-30 0 -63.5 12.5
t-98.5 45.5q-55 29 -77 37.5t-43 8.5q-31 0 -59.5 -22.5t-54.5 -81.5z" />
    <glyph glyph-name="Adieresis" unicode="&#xc4;" horiz-adv-x="1149" 
d="M52 0l432 1256h190l422 -1256h-164l-106 322h-500l-110 -322h-164zM366 444h420l-210 622zM747 1439q-43 0 -73.5 28.5t-30.5 70.5t30.5 72t73.5 30q45 0 75.5 -30t30.5 -72t-30.5 -70.5t-75.5 -28.5zM413 1439q-45 0 -74.5 28.5t-29.5 68.5q0 44 29.5 73t74.5 29
t75.5 -29t30.5 -73q0 -40 -30.5 -68.5t-75.5 -28.5z" />
    <glyph glyph-name="Aring" unicode="&#xc5;" horiz-adv-x="1149" 
d="M52 0l432 1256h190l422 -1256h-164l-106 322h-500l-110 -322h-164zM366 444h420l-210 622zM581 1368q-55 0 -100.5 27t-72.5 72.5t-27 100.5t27 100.5t72.5 73t100.5 27.5t100.5 -27.5t73 -73t27.5 -100.5t-27.5 -100.5t-73 -72.5t-100.5 -27zM581 1480q38 0 63.5 25.5
t25.5 62.5q0 38 -25.5 63.5t-63.5 25.5q-37 0 -62.5 -25.5t-25.5 -63.5q0 -37 25.5 -62.5t62.5 -25.5z" />
    <glyph glyph-name="AE" unicode="&#xc6;" horiz-adv-x="1681" 
d="M1531 1256v-134h-612l29 27v-512l-29 55h575v-134h-575l29 42v-531l-29 68h612v-137h-739v372l29 -50h-486l77 44l-144 -366h-161l494 1256h930zM821 444l-29 -47l-1 750l30 -25h-155l65 54l-302 -766l-38 34h430z" />
    <glyph glyph-name="Ccedilla" unicode="&#xc7;" horiz-adv-x="1226" 
d="M638 -24q-166 0 -286 83.5t-185 232t-65 344.5q0 209 70.5 352t192 216.5t273.5 73.5q201 0 323.5 -100.5t168.5 -261.5l-168 -34q-39 117 -124.5 186.5t-199.5 69.5q-99 0 -182.5 -56.5t-134.5 -168.5t-51 -277q0 -150 40.5 -267t122 -184t205.5 -67q149 0 236.5 80
t87.5 210h170q0 -135 -62 -231.5t-173.5 -148.5t-258.5 -52zM451 -356l27 66q74 -39 133 -44.5t94.5 14.5t38.5 55t-26.5 61t-75.5 44t-95 29l71 187l89 -8l-67 -175l-36 57q90 -20 151 -49t91 -67t26 -86q-4 -57 -48.5 -91.5t-110.5 -45t-136 2.5t-126 50z" />
    <glyph glyph-name="Egrave" unicode="&#xc8;" horiz-adv-x="1124" 
d="M200 0v1256h774v-134h-618v-422h582v-134h-582v-430h618v-136h-774zM710 1425l-367 325l109 89l336 -351z" />
    <glyph glyph-name="Eacute" unicode="&#xc9;" horiz-adv-x="1124" 
d="M200 0v1256h774v-134h-618v-422h582v-134h-582v-430h618v-136h-774zM503 1419l-78 63l336 351l109 -89z" />
    <glyph glyph-name="Ecircumflex" unicode="&#xca;" horiz-adv-x="1124" 
d="M200 0v1256h774v-134h-618v-422h582v-134h-582v-430h618v-136h-774zM338 1382l-94 74l317 311l318 -311l-93 -74l-252 255h54z" />
    <glyph glyph-name="Edieresis" unicode="&#xcb;" horiz-adv-x="1124" 
d="M200 0v1256h774v-134h-618v-422h582v-134h-582v-430h618v-136h-774zM728 1439q-43 0 -73.5 28.5t-30.5 70.5t30.5 72t73.5 30q45 0 75.5 -30t30.5 -72t-30.5 -70.5t-75.5 -28.5zM394 1439q-45 0 -74.5 28.5t-29.5 68.5q0 44 29.5 73t74.5 29t75.5 -29t30.5 -73
q0 -40 -30.5 -68.5t-75.5 -28.5z" />
    <glyph glyph-name="Igrave" unicode="&#xcc;" horiz-adv-x="560" 
d="M202 0v1256h156v-1256h-156zM428 1425l-367 325l109 89l336 -351z" />
    <glyph glyph-name="Iacute" unicode="&#xcd;" horiz-adv-x="560" 
d="M202 0v1256h156v-1256h-156zM221 1419l-78 63l336 351l109 -89z" />
    <glyph glyph-name="Icircumflex" unicode="&#xce;" horiz-adv-x="560" 
d="M202 0v1256h156v-1256h-156zM56 1382l-94 74l317 311l318 -311l-93 -74l-252 255h54z" />
    <glyph glyph-name="Idieresis" unicode="&#xcf;" horiz-adv-x="560" 
d="M202 0v1256h156v-1256h-156zM446 1439q-43 0 -73.5 28.5t-30.5 70.5t30.5 72t73.5 30q45 0 75.5 -30t30.5 -72t-30.5 -70.5t-75.5 -28.5zM112 1439q-45 0 -74.5 28.5t-29.5 68.5q0 44 29.5 73t74.5 29t75.5 -29t30.5 -73q0 -40 -30.5 -68.5t-75.5 -28.5z" />
    <glyph glyph-name="Eth" unicode="&#xd0;" horiz-adv-x="1320" 
d="M44 695h625v-134h-625v134zM202 1256h368q190 0 330 -77.5t217 -218.5t77 -332q0 -189 -77 -330t-217 -219.5t-330 -78.5h-368v1256zM358 1118v-982h212q142 0 244.5 64t158 175.5t55.5 252.5q0 142 -55.5 252.5t-158 174t-244.5 63.5h-212z" />
    <glyph glyph-name="Ntilde" unicode="&#xd1;" horiz-adv-x="1368" 
d="M200 1256h186l638 -1034h-14v1034h156v-1256h-174l-660 1068h24v-1068h-156v1256zM433 1411l-64 41q24 100 70.5 153t107.5 53q26 0 54.5 -9.5t91.5 -42.5q62 -32 86 -42t46 -10q29 0 57 25t49 79l68 -46q-15 -63 -41.5 -108t-60 -69t-68.5 -24q-30 0 -63.5 12.5
t-98.5 45.5q-55 29 -77 37.5t-43 8.5q-31 0 -59.5 -22.5t-54.5 -81.5z" />
    <glyph glyph-name="Ograve" unicode="&#xd2;" horiz-adv-x="1291" 
d="M646 -24q-156 0 -279 72t-194 216.5t-71 361.5q0 220 71 364.5t194 216t279 71.5t279 -72t194 -217t71 -363q0 -219 -71 -363.5t-194 -215.5t-279 -71zM646 120q177 0 279.5 129t102.5 379q0 245 -102.5 377.5t-279.5 132.5q-175 0 -278.5 -133t-103.5 -379
q0 -249 103.5 -377.5t278.5 -128.5zM801 1425l-367 325l109 89l336 -351z" />
    <glyph glyph-name="Oacute" unicode="&#xd3;" horiz-adv-x="1291" 
d="M646 -24q-156 0 -279 72t-194 216.5t-71 361.5q0 220 71 364.5t194 216t279 71.5t279 -72t194 -217t71 -363q0 -219 -71 -363.5t-194 -215.5t-279 -71zM646 120q177 0 279.5 129t102.5 379q0 245 -102.5 377.5t-279.5 132.5q-175 0 -278.5 -133t-103.5 -379
q0 -249 103.5 -377.5t278.5 -128.5zM594 1419l-78 63l336 351l109 -89z" />
    <glyph glyph-name="Ocircumflex" unicode="&#xd4;" horiz-adv-x="1291" 
d="M646 -24q-156 0 -279 72t-194 216.5t-71 361.5q0 220 71 364.5t194 216t279 71.5t279 -72t194 -217t71 -363q0 -219 -71 -363.5t-194 -215.5t-279 -71zM646 120q177 0 279.5 129t102.5 379q0 245 -102.5 377.5t-279.5 132.5q-175 0 -278.5 -133t-103.5 -379
q0 -249 103.5 -377.5t278.5 -128.5zM429 1382l-94 74l317 311l318 -311l-93 -74l-252 255h54z" />
    <glyph glyph-name="Otilde" unicode="&#xd5;" horiz-adv-x="1291" 
d="M646 -24q-156 0 -279 72t-194 216.5t-71 361.5q0 220 71 364.5t194 216t279 71.5t279 -72t194 -217t71 -363q0 -219 -71 -363.5t-194 -215.5t-279 -71zM646 120q177 0 279.5 129t102.5 379q0 245 -102.5 377.5t-279.5 132.5q-175 0 -278.5 -133t-103.5 -379
q0 -249 103.5 -377.5t278.5 -128.5zM402 1411l-64 41q24 100 70.5 153t107.5 53q26 0 54.5 -9.5t91.5 -42.5q62 -32 86 -42t46 -10q29 0 57 25t49 79l68 -46q-15 -63 -41.5 -108t-60 -69t-68.5 -24q-30 0 -63.5 12.5t-98.5 45.5q-55 29 -77 37.5t-43 8.5q-31 0 -59.5 -22.5
t-54.5 -81.5z" />
    <glyph glyph-name="Odieresis" unicode="&#xd6;" horiz-adv-x="1291" 
d="M646 -24q-156 0 -279 72t-194 216.5t-71 361.5q0 220 71 364.5t194 216t279 71.5t279 -72t194 -217t71 -363q0 -219 -71 -363.5t-194 -215.5t-279 -71zM646 120q177 0 279.5 129t102.5 379q0 245 -102.5 377.5t-279.5 132.5q-175 0 -278.5 -133t-103.5 -379
q0 -249 103.5 -377.5t278.5 -128.5zM819 1439q-43 0 -73.5 28.5t-30.5 70.5t30.5 72t73.5 30q45 0 75.5 -30t30.5 -72t-30.5 -70.5t-75.5 -28.5zM485 1439q-45 0 -74.5 28.5t-29.5 68.5q0 44 29.5 73t74.5 29t75.5 -29t30.5 -73q0 -40 -30.5 -68.5t-75.5 -28.5z" />
    <glyph glyph-name="multiply" unicode="&#xd7;" horiz-adv-x="1055" 
d="M242 110l-108 110l284 286l-284 282l108 110l286 -284l284 284l110 -110l-286 -282l286 -286l-110 -110l-284 284z" />
    <glyph glyph-name="Oslash" unicode="&#xd8;" horiz-adv-x="1291" 
d="M92 0l955 1258h138l-958 -1258h-135zM645 -24q-156 0 -279 72t-194 216.5t-71 361.5q0 220 71 364.5t194 216t279 71.5t279 -72t194 -217t71 -363q0 -219 -71 -363.5t-194 -215.5t-279 -71zM645 120q177 0 279.5 129t102.5 379q0 245 -102.5 377.5t-279.5 132.5
q-175 0 -278.5 -133t-103.5 -379q0 -249 103.5 -377.5t278.5 -128.5z" />
    <glyph glyph-name="Ugrave" unicode="&#xd9;" horiz-adv-x="1306" 
d="M174 1256h156v-802q0 -177 89 -255.5t233 -78.5q143 0 231.5 78.5t88.5 255.5v802h156v-802q0 -158 -58.5 -264.5t-165.5 -160t-252 -53.5t-252.5 53.5t-166.5 160t-59 264.5v802zM801 1425l-367 325l109 89l336 -351z" />
    <glyph glyph-name="Uacute" unicode="&#xda;" horiz-adv-x="1306" 
d="M174 1256h156v-802q0 -177 89 -255.5t233 -78.5q143 0 231.5 78.5t88.5 255.5v802h156v-802q0 -158 -58.5 -264.5t-165.5 -160t-252 -53.5t-252.5 53.5t-166.5 160t-59 264.5v802zM594 1419l-78 63l336 351l109 -89z" />
    <glyph glyph-name="Ucircumflex" unicode="&#xdb;" horiz-adv-x="1306" 
d="M174 1256h156v-802q0 -177 89 -255.5t233 -78.5q143 0 231.5 78.5t88.5 255.5v802h156v-802q0 -158 -58.5 -264.5t-165.5 -160t-252 -53.5t-252.5 53.5t-166.5 160t-59 264.5v802zM429 1382l-94 74l317 311l318 -311l-93 -74l-252 255h54z" />
    <glyph glyph-name="Udieresis" unicode="&#xdc;" horiz-adv-x="1306" 
d="M174 1256h156v-802q0 -177 89 -255.5t233 -78.5q143 0 231.5 78.5t88.5 255.5v802h156v-802q0 -158 -58.5 -264.5t-165.5 -160t-252 -53.5t-252.5 53.5t-166.5 160t-59 264.5v802zM819 1439q-43 0 -73.5 28.5t-30.5 70.5t30.5 72t73.5 30q45 0 75.5 -30t30.5 -72
t-30.5 -70.5t-75.5 -28.5zM485 1439q-45 0 -74.5 28.5t-29.5 68.5q0 44 29.5 73t74.5 29t75.5 -29t30.5 -73q0 -40 -30.5 -68.5t-75.5 -28.5z" />
    <glyph glyph-name="Yacute" unicode="&#xdd;" horiz-adv-x="1097" 
d="M18 1256h188l360 -610h-40l366 610h186l-454 -740v-516h-158v516zM490 1419l-78 63l336 351l109 -89z" />
    <glyph glyph-name="Thorn" unicode="&#xde;" horiz-adv-x="1107" 
d="M198 0v1256h158v-245l-36 35h282q207 0 316.5 -104.5t109.5 -283.5q0 -177 -109.5 -280.5t-316.5 -103.5h-282l36 35v-309h-158zM356 375l-36 35h282q131 0 198.5 67t67.5 181q0 116 -67.5 185t-198.5 69h-282l36 36v-573z" />
    <glyph glyph-name="germandbls" unicode="&#xdf;" horiz-adv-x="1227" 
d="M968 1076q0 -75 -28.5 -124.5t-65.5 -85t-65.5 -67t-28.5 -70.5q0 -40 33 -71t81.5 -61.5t97 -69.5t81.5 -95.5t33 -140.5q0 -93 -45 -164t-119.5 -111t-165.5 -40q-57 0 -129 16.5t-128 44.5l3 134q56 -40 117 -60t116 -20q65 0 105.5 25.5t59 66.5t18.5 87
q0 68 -31.5 115.5t-78 83.5t-93 69.5t-78 73.5t-31.5 95q0 54 29.5 93t68.5 74.5t68.5 78t29.5 104.5q0 78 -58.5 131t-168.5 53q-120 0 -178.5 -74t-58.5 -244v-923h-156v926q0 139 46 237t135.5 150t222.5 52q120 0 200.5 -39t121 -104.5t40.5 -145.5z" />
    <glyph glyph-name="agrave" unicode="&#xe0;" horiz-adv-x="1101" 
d="M794 0l-20 210v410q0 129 -55 185.5t-165 56.5q-62 0 -112.5 -18t-80 -55.5t-29.5 -96.5h-174q0 104 51 167.5t140.5 92t204.5 28.5q110 0 195 -37t133 -117.5t48 -209.5v-616h-136zM468 -24q-118 0 -195 42t-115 109t-38 141q0 97 48.5 158t132.5 89.5t189 28.5
q75 0 150.5 -15t147.5 -41v-98q-60 24 -135.5 38t-138.5 14q-96 0 -162 -39.5t-66 -134.5q0 -70 50.5 -120t161.5 -50q78 0 140.5 36.5t99 91.5t36.5 110h38q0 -96 -41.5 -178t-118.5 -132t-184 -50zM698 1125l-367 325l109 89l336 -351z" />
    <glyph glyph-name="aacute" unicode="&#xe1;" horiz-adv-x="1101" 
d="M794 0l-20 210v410q0 129 -55 185.5t-165 56.5q-62 0 -112.5 -18t-80 -55.5t-29.5 -96.5h-174q0 104 51 167.5t140.5 92t204.5 28.5q110 0 195 -37t133 -117.5t48 -209.5v-616h-136zM468 -24q-118 0 -195 42t-115 109t-38 141q0 97 48.5 158t132.5 89.5t189 28.5
q75 0 150.5 -15t147.5 -41v-98q-60 24 -135.5 38t-138.5 14q-96 0 -162 -39.5t-66 -134.5q0 -70 50.5 -120t161.5 -50q78 0 140.5 36.5t99 91.5t36.5 110h38q0 -96 -41.5 -178t-118.5 -132t-184 -50zM491 1119l-78 63l336 351l109 -89z" />
    <glyph glyph-name="acircumflex" unicode="&#xe2;" horiz-adv-x="1101" 
d="M794 0l-20 210v410q0 129 -55 185.5t-165 56.5q-62 0 -112.5 -18t-80 -55.5t-29.5 -96.5h-174q0 104 51 167.5t140.5 92t204.5 28.5q110 0 195 -37t133 -117.5t48 -209.5v-616h-136zM468 -24q-118 0 -195 42t-115 109t-38 141q0 97 48.5 158t132.5 89.5t189 28.5
q75 0 150.5 -15t147.5 -41v-98q-60 24 -135.5 38t-138.5 14q-96 0 -162 -39.5t-66 -134.5q0 -70 50.5 -120t161.5 -50q78 0 140.5 36.5t99 91.5t36.5 110h38q0 -96 -41.5 -178t-118.5 -132t-184 -50zM326 1082l-94 74l317 311l318 -311l-93 -74l-252 255h54z" />
    <glyph glyph-name="atilde" unicode="&#xe3;" horiz-adv-x="1101" 
d="M794 0l-20 210v410q0 129 -55 185.5t-165 56.5q-62 0 -112.5 -18t-80 -55.5t-29.5 -96.5h-174q0 104 51 167.5t140.5 92t204.5 28.5q110 0 195 -37t133 -117.5t48 -209.5v-616h-136zM468 -24q-118 0 -195 42t-115 109t-38 141q0 97 48.5 158t132.5 89.5t189 28.5
q75 0 150.5 -15t147.5 -41v-98q-60 24 -135.5 38t-138.5 14q-96 0 -162 -39.5t-66 -134.5q0 -70 50.5 -120t161.5 -50q78 0 140.5 36.5t99 91.5t36.5 110h38q0 -96 -41.5 -178t-118.5 -132t-184 -50zM299 1111l-64 41q24 100 70.5 153t107.5 53q26 0 54.5 -9.5t91.5 -42.5
q62 -32 86 -42t46 -10q29 0 57 25t49 79l68 -46q-15 -63 -41.5 -108t-60 -69t-68.5 -24q-30 0 -63.5 12.5t-98.5 45.5q-55 29 -77 37.5t-43 8.5q-31 0 -59.5 -22.5t-54.5 -81.5z" />
    <glyph glyph-name="adieresis" unicode="&#xe4;" horiz-adv-x="1101" 
d="M794 0l-20 210v410q0 129 -55 185.5t-165 56.5q-62 0 -112.5 -18t-80 -55.5t-29.5 -96.5h-174q0 104 51 167.5t140.5 92t204.5 28.5q110 0 195 -37t133 -117.5t48 -209.5v-616h-136zM468 -24q-118 0 -195 42t-115 109t-38 141q0 97 48.5 158t132.5 89.5t189 28.5
q75 0 150.5 -15t147.5 -41v-98q-60 24 -135.5 38t-138.5 14q-96 0 -162 -39.5t-66 -134.5q0 -70 50.5 -120t161.5 -50q78 0 140.5 36.5t99 91.5t36.5 110h38q0 -96 -41.5 -178t-118.5 -132t-184 -50zM716 1139q-43 0 -73.5 28.5t-30.5 70.5t30.5 72t73.5 30q45 0 75.5 -30
t30.5 -72t-30.5 -70.5t-75.5 -28.5zM382 1139q-45 0 -74.5 28.5t-29.5 68.5q0 44 29.5 73t74.5 29t75.5 -29t30.5 -73q0 -40 -30.5 -68.5t-75.5 -28.5z" />
    <glyph glyph-name="aring" unicode="&#xe5;" horiz-adv-x="1101" 
d="M794 0l-20 210v410q0 129 -55 185.5t-165 56.5q-62 0 -112.5 -18t-80 -55.5t-29.5 -96.5h-174q0 104 51 167.5t140.5 92t204.5 28.5q110 0 195 -37t133 -117.5t48 -209.5v-616h-136zM468 -24q-118 0 -195 42t-115 109t-38 141q0 97 48.5 158t132.5 89.5t189 28.5
q75 0 150.5 -15t147.5 -41v-98q-60 24 -135.5 38t-138.5 14q-96 0 -162 -39.5t-66 -134.5q0 -70 50.5 -120t161.5 -50q78 0 140.5 36.5t99 91.5t36.5 110h38q0 -96 -41.5 -178t-118.5 -132t-184 -50zM550 1068q-55 0 -100.5 27t-72.5 72.5t-27 100.5t27 100.5t72.5 73
t100.5 27.5t100.5 -27.5t73 -73t27.5 -100.5t-27.5 -100.5t-73 -72.5t-100.5 -27zM550 1180q38 0 63.5 25.5t25.5 62.5q0 38 -25.5 63.5t-63.5 25.5q-37 0 -62.5 -25.5t-25.5 -63.5q0 -37 25.5 -62.5t62.5 -25.5z" />
    <glyph glyph-name="ae" unicode="&#xe6;" horiz-adv-x="1694" 
d="M788 302h-21v318q0 128 -56 185t-163 57q-60 0 -109 -18t-78 -55.5t-29 -96.5h-174q0 104 51 167.5t134 92t178 28.5q118 0 201 -41.5t127 -126t44 -213.5v-206zM460 -24q-107 0 -183 39.5t-116.5 107t-40.5 150.5q0 93 48 153t130 89t182 29q77 0 154 -16t147 -40v-98
q-59 24 -136.5 38t-136.5 14q-92 0 -157 -40t-65 -130q0 -73 49.5 -123.5t146.5 -50.5q84 0 148 36t100.5 91t36.5 111h102q0 -90 -50 -172.5t-141.5 -135t-217.5 -52.5zM1210 -24q-130 0 -228.5 65t-154 179.5t-55.5 261.5t55 259.5t152 175.5t224 63q107 0 184 -44
t124 -119t66 -169.5t10 -195.5h-692v96h589l-46 -30q3 59 -6.5 118t-35.5 108.5t-73.5 79.5t-120.5 30q-91 0 -152.5 -47t-93 -123.5t-31.5 -165.5v-64q0 -100 30 -179t92 -125t156 -46q88 0 149.5 43.5t74.5 134.5h162q-14 -93 -67 -162t-134 -106.5t-178 -37.5z" />
    <glyph glyph-name="ccedilla" unicode="&#xe7;" horiz-adv-x="1032" 
d="M538 -24q-115 0 -214.5 62t-160.5 175t-61 267q0 158 61 270t160.5 171t214.5 59q81 0 145.5 -24.5t112.5 -67.5t79.5 -97.5t46.5 -114.5l-160 -14q-25 83 -83.5 131.5t-142.5 48.5q-71 0 -133.5 -40.5t-101.5 -121t-39 -200.5q0 -111 35.5 -192.5t97.5 -126.5t141 -45
q111 0 168.5 54.5t57.5 151.5h160q0 -100 -47 -178t-133.5 -123t-203.5 -45zM341 -355l27 66q74 -39 133 -44.5t94.5 14.5t38.5 55t-26.5 61t-75.5 44t-95 29l71 187l89 -8l-67 -175l-36 57q90 -20 151 -49t91 -67t26 -86q-4 -57 -48.5 -91.5t-110.5 -45t-136 2.5t-126 50z
" />
    <glyph glyph-name="egrave" unicode="&#xe8;" horiz-adv-x="1027" 
d="M534 -24q-124 0 -221.5 63.5t-154 176.5t-56.5 260q0 157 56 270t153.5 173.5t222.5 60.5q109 0 186 -44t124 -119t65.5 -169.5t10.5 -195.5h-692v96h589l-46 -30q3 59 -6.5 118t-35.5 108.5t-73 79.5t-120 30q-92 0 -154 -47t-93 -123.5t-31 -165.5v-64
q0 -100 30.5 -179t91.5 -125t154 -46t153 45t73 133h162q-15 -95 -68 -163.5t-135 -105.5t-185 -37zM662 1125l-367 325l109 89l336 -351z" />
    <glyph glyph-name="eacute" unicode="&#xe9;" horiz-adv-x="1027" 
d="M534 -24q-124 0 -221.5 63.5t-154 176.5t-56.5 260q0 157 56 270t153.5 173.5t222.5 60.5q109 0 186 -44t124 -119t65.5 -169.5t10.5 -195.5h-692v96h589l-46 -30q3 59 -6.5 118t-35.5 108.5t-73 79.5t-120 30q-92 0 -154 -47t-93 -123.5t-31 -165.5v-64
q0 -100 30.5 -179t91.5 -125t154 -46t153 45t73 133h162q-15 -95 -68 -163.5t-135 -105.5t-185 -37zM455 1119l-78 63l336 351l109 -89z" />
    <glyph glyph-name="ecircumflex" unicode="&#xea;" horiz-adv-x="1027" 
d="M534 -24q-124 0 -221.5 63.5t-154 176.5t-56.5 260q0 157 56 270t153.5 173.5t222.5 60.5q109 0 186 -44t124 -119t65.5 -169.5t10.5 -195.5h-692v96h589l-46 -30q3 59 -6.5 118t-35.5 108.5t-73 79.5t-120 30q-92 0 -154 -47t-93 -123.5t-31 -165.5v-64
q0 -100 30.5 -179t91.5 -125t154 -46t153 45t73 133h162q-15 -95 -68 -163.5t-135 -105.5t-185 -37zM290 1082l-94 74l317 311l318 -311l-93 -74l-252 255h54z" />
    <glyph glyph-name="edieresis" unicode="&#xeb;" horiz-adv-x="1027" 
d="M534 -24q-124 0 -221.5 63.5t-154 176.5t-56.5 260q0 157 56 270t153.5 173.5t222.5 60.5q109 0 186 -44t124 -119t65.5 -169.5t10.5 -195.5h-692v96h589l-46 -30q3 59 -6.5 118t-35.5 108.5t-73 79.5t-120 30q-92 0 -154 -47t-93 -123.5t-31 -165.5v-64
q0 -100 30.5 -179t91.5 -125t154 -46t153 45t73 133h162q-15 -95 -68 -163.5t-135 -105.5t-185 -37zM680 1139q-43 0 -73.5 28.5t-30.5 70.5t30.5 72t73.5 30q45 0 75.5 -30t30.5 -72t-30.5 -70.5t-75.5 -28.5zM346 1139q-45 0 -74.5 28.5t-29.5 68.5q0 44 29.5 73t74.5 29
t75.5 -29t30.5 -73q0 -40 -30.5 -68.5t-75.5 -28.5z" />
    <glyph glyph-name="igrave" unicode="&#xec;" horiz-adv-x="596" 
d="M212 0v958h156v-958h-156zM437 1125l-367 325l109 89l336 -351z" />
    <glyph glyph-name="iacute" unicode="&#xed;" horiz-adv-x="596" 
d="M212 0v958h156v-958h-156zM230 1119l-78 63l336 351l109 -89z" />
    <glyph glyph-name="icircumflex" unicode="&#xee;" horiz-adv-x="596" 
d="M212 0v958h156v-958h-156zM65 1082l-94 74l317 311l318 -311l-93 -74l-252 255h54z" />
    <glyph glyph-name="idieresis" unicode="&#xef;" horiz-adv-x="596" 
d="M212 0v958h156v-958h-156zM455 1139q-43 0 -73.5 28.5t-30.5 70.5t30.5 72t73.5 30q45 0 75.5 -30t30.5 -72t-30.5 -70.5t-75.5 -28.5zM121 1139q-45 0 -74.5 28.5t-29.5 68.5q0 44 29.5 73t74.5 29t75.5 -29t30.5 -73q0 -40 -30.5 -68.5t-75.5 -28.5z" />
    <glyph glyph-name="eth" unicode="&#xf0;" horiz-adv-x="1122" 
d="M547 -24q-116 0 -213.5 62.5t-156.5 176.5t-59 268q0 152 57 263.5t151 172.5t205 61q109 0 194 -58t134 -161.5t49 -241.5h-59q-1 111 -44.5 182.5t-108.5 106t-133 34.5q-79 0 -143.5 -43.5t-103 -124.5t-38.5 -194q0 -112 38 -193.5t103 -126t147 -44.5q88 0 148 50
t93.5 137t39.5 197q8 164 -17 313.5t-81 280.5t-141 239t-197 189l120 96q105 -83 191.5 -196t148.5 -245t96 -275.5t34 -287.5q0 -147 -34.5 -265t-96 -201t-144 -127.5t-179.5 -44.5zM443 1117l-48 101l577 280l48 -101z" />
    <glyph glyph-name="ntilde" unicode="&#xf1;" horiz-adv-x="1207" 
d="M882 0v562q0 137 -65.5 208.5t-178.5 71.5q-86 0 -149 -47t-97 -134.5t-34 -208.5h-60q0 167 44 285t128.5 180.5t205.5 62.5q113 0 193.5 -50.5t123.5 -144.5t43 -223v-562h-154zM202 0v956h134l22 -220v-736h-156zM380 1125l-64 41q24 100 70.5 153t107.5 53
q26 0 54.5 -9.5t91.5 -42.5q62 -32 86 -42t46 -10q29 0 57 25t49 79l68 -46q-15 -63 -41.5 -108t-60 -69t-68.5 -24q-30 0 -63.5 12.5t-98.5 45.5q-55 29 -77 37.5t-43 8.5q-31 0 -59.5 -22.5t-54.5 -81.5z" />
    <glyph glyph-name="ograve" unicode="&#xf2;" horiz-adv-x="1093" 
d="M548 -24q-129 0 -229.5 57t-158.5 169t-58 276q0 165 58 276.5t158.5 168.5t229.5 57q128 0 228.5 -57t158 -168.5t57.5 -276.5q0 -164 -57.5 -276t-158 -169t-228.5 -57zM544 112q93 0 158 44.5t98.5 126.5t33.5 195q0 171 -71 269.5t-211 98.5q-94 0 -158.5 -44.5
t-98 -127t-33.5 -196.5q0 -169 71.5 -267.5t210.5 -98.5zM695 1125l-367 325l109 89l336 -351z" />
    <glyph glyph-name="oacute" unicode="&#xf3;" horiz-adv-x="1093" 
d="M548 -24q-129 0 -229.5 57t-158.5 169t-58 276q0 165 58 276.5t158.5 168.5t229.5 57q128 0 228.5 -57t158 -168.5t57.5 -276.5q0 -164 -57.5 -276t-158 -169t-228.5 -57zM544 112q93 0 158 44.5t98.5 126.5t33.5 195q0 171 -71 269.5t-211 98.5q-94 0 -158.5 -44.5
t-98 -127t-33.5 -196.5q0 -169 71.5 -267.5t210.5 -98.5zM488 1119l-78 63l336 351l109 -89z" />
    <glyph glyph-name="ocircumflex" unicode="&#xf4;" horiz-adv-x="1093" 
d="M548 -24q-129 0 -229.5 57t-158.5 169t-58 276q0 165 58 276.5t158.5 168.5t229.5 57q128 0 228.5 -57t158 -168.5t57.5 -276.5q0 -164 -57.5 -276t-158 -169t-228.5 -57zM544 112q93 0 158 44.5t98.5 126.5t33.5 195q0 171 -71 269.5t-211 98.5q-94 0 -158.5 -44.5
t-98 -127t-33.5 -196.5q0 -169 71.5 -267.5t210.5 -98.5zM323 1082l-94 74l317 311l318 -311l-93 -74l-252 255h54z" />
    <glyph glyph-name="otilde" unicode="&#xf5;" horiz-adv-x="1093" 
d="M548 -24q-129 0 -229.5 57t-158.5 169t-58 276q0 165 58 276.5t158.5 168.5t229.5 57q128 0 228.5 -57t158 -168.5t57.5 -276.5q0 -164 -57.5 -276t-158 -169t-228.5 -57zM544 112q93 0 158 44.5t98.5 126.5t33.5 195q0 171 -71 269.5t-211 98.5q-94 0 -158.5 -44.5
t-98 -127t-33.5 -196.5q0 -169 71.5 -267.5t210.5 -98.5zM296 1111l-64 41q24 100 70.5 153t107.5 53q26 0 54.5 -9.5t91.5 -42.5q62 -32 86 -42t46 -10q29 0 57 25t49 79l68 -46q-15 -63 -41.5 -108t-60 -69t-68.5 -24q-30 0 -63.5 12.5t-98.5 45.5q-55 29 -77 37.5
t-43 8.5q-31 0 -59.5 -22.5t-54.5 -81.5z" />
    <glyph glyph-name="odieresis" unicode="&#xf6;" horiz-adv-x="1093" 
d="M548 -24q-129 0 -229.5 57t-158.5 169t-58 276q0 165 58 276.5t158.5 168.5t229.5 57q128 0 228.5 -57t158 -168.5t57.5 -276.5q0 -164 -57.5 -276t-158 -169t-228.5 -57zM544 112q93 0 158 44.5t98.5 126.5t33.5 195q0 171 -71 269.5t-211 98.5q-94 0 -158.5 -44.5
t-98 -127t-33.5 -196.5q0 -169 71.5 -267.5t210.5 -98.5zM713 1139q-43 0 -73.5 28.5t-30.5 70.5t30.5 72t73.5 30q45 0 75.5 -30t30.5 -72t-30.5 -70.5t-75.5 -28.5zM379 1139q-45 0 -74.5 28.5t-29.5 68.5q0 44 29.5 73t74.5 29t75.5 -29t30.5 -73q0 -40 -30.5 -68.5
t-75.5 -28.5z" />
    <glyph glyph-name="divide" unicode="&#xf7;" horiz-adv-x="1031" 
d="M166 452v136h698v-136h-698zM514 140q-43 0 -72.5 29t-29.5 69q0 41 29.5 70.5t72.5 29.5q45 0 74.5 -29.5t29.5 -70.5q0 -40 -29.5 -69t-74.5 -29zM514 700q-43 0 -72.5 28t-29.5 70q0 41 29.5 69.5t72.5 28.5q45 0 74.5 -28.5t29.5 -69.5q0 -42 -29.5 -70t-74.5 -28z
" />
    <glyph glyph-name="oslash" unicode="&#xf8;" horiz-adv-x="1093" 
d="M548 -24q-129 0 -229.5 57t-158.5 169t-58 276q0 165 58 276.5t158.5 168.5t229.5 57q128 0 228.5 -57t158 -168.5t57.5 -276.5q0 -164 -57.5 -276t-158 -169t-228.5 -57zM544 112q93 0 158 44.5t98.5 126.5t33.5 195q0 171 -71 269.5t-211 98.5q-94 0 -158.5 -44.5
t-98 -127t-33.5 -196.5q0 -169 71.5 -267.5t210.5 -98.5zM76.9941 0.201172l800.105 956.896h145.635l-803.746 -956.896h-141.994z" />
    <glyph glyph-name="ugrave" unicode="&#xf9;" horiz-adv-x="1211" 
d="M852 958h156v-958h-156v958zM174 958h156v-596q0 -120 58.5 -182t167.5 -62q90 0 156.5 48t103 132.5t36.5 193.5h58q0 -161 -46.5 -275t-131 -174.5t-198.5 -60.5q-108 0 -189 40t-126 121.5t-45 206.5v608zM772 1125l-367 325l109 89l336 -351z" />
    <glyph glyph-name="uacute" unicode="&#xfa;" horiz-adv-x="1211" 
d="M852 958h156v-958h-156v958zM174 958h156v-596q0 -120 58.5 -182t167.5 -62q90 0 156.5 48t103 132.5t36.5 193.5h58q0 -161 -46.5 -275t-131 -174.5t-198.5 -60.5q-108 0 -189 40t-126 121.5t-45 206.5v608zM565 1119l-78 63l336 351l109 -89z" />
    <glyph glyph-name="ucircumflex" unicode="&#xfb;" horiz-adv-x="1211" 
d="M852 958h156v-958h-156v958zM174 958h156v-596q0 -120 58.5 -182t167.5 -62q90 0 156.5 48t103 132.5t36.5 193.5h58q0 -161 -46.5 -275t-131 -174.5t-198.5 -60.5q-108 0 -189 40t-126 121.5t-45 206.5v608zM400 1082l-94 74l317 311l318 -311l-93 -74l-252 255h54z" />
    <glyph glyph-name="udieresis" unicode="&#xfc;" horiz-adv-x="1211" 
d="M852 958h156v-958h-156v958zM174 958h156v-596q0 -120 58.5 -182t167.5 -62q90 0 156.5 48t103 132.5t36.5 193.5h58q0 -161 -46.5 -275t-131 -174.5t-198.5 -60.5q-108 0 -189 40t-126 121.5t-45 206.5v608zM790 1139q-43 0 -73.5 28.5t-30.5 70.5t30.5 72t73.5 30
q45 0 75.5 -30t30.5 -72t-30.5 -70.5t-75.5 -28.5zM456 1139q-45 0 -74.5 28.5t-29.5 68.5q0 44 29.5 73t74.5 29t75.5 -29t30.5 -73q0 -40 -30.5 -68.5t-75.5 -28.5z" />
    <glyph glyph-name="yacute" unicode="&#xfd;" horiz-adv-x="931" 
d="M44 956h174l312 -820h-36l242 820h160l-360 -1148q-45 -144 -120 -222t-192 -78q-63 0 -119.5 18t-116.5 52v144q53 -42 102.5 -60t103.5 -18q60 0 100.5 38t67.5 97.5t46 124.5l28 96zM407 1119l-78 63l336 351l109 -89z" />
    <glyph glyph-name="thorn" unicode="&#xfe;" 
d="M636 -24q-105 0 -182.5 48t-119.5 140.5t-42 225.5h66q0 -89 37 -150t96.5 -92.5t126.5 -31.5q72 0 138 41.5t108 122.5t42 200q0 114 -38.5 195t-103.5 124t-144 43q-68 0 -128 -33t-97 -96.5t-37 -156.5h-66q0 139 46 233.5t125 142.5t177 48q112 0 209 -60t157 -172
t60 -268q0 -158 -60.5 -271t-158.5 -173t-211 -60zM202 -470v1726h156v-1726h-156z" />
    <glyph glyph-name="ydieresis" unicode="&#xff;" horiz-adv-x="931" 
d="M44 956h174l312 -820h-36l242 820h160l-360 -1148q-45 -144 -120 -222t-192 -78q-63 0 -119.5 18t-116.5 52v144q53 -42 102.5 -60t103.5 -18q60 0 100.5 38t67.5 97.5t46 124.5l28 96zM632 1139q-43 0 -73.5 28.5t-30.5 70.5t30.5 72t73.5 30q45 0 75.5 -30t30.5 -72
t-30.5 -70.5t-75.5 -28.5zM298 1139q-45 0 -74.5 28.5t-29.5 68.5q0 44 29.5 73t74.5 29t75.5 -29t30.5 -73q0 -40 -30.5 -68.5t-75.5 -28.5z" />
    <glyph glyph-name="Amacron" unicode="&#x100;" horiz-adv-x="1149" 
d="M52 0l432 1256h190l422 -1256h-164l-106 322h-500l-110 -322h-164zM366 444h420l-210 622zM269 1598h625v-130h-625v130z" />
    <glyph glyph-name="amacron" unicode="&#x101;" horiz-adv-x="1101" 
d="M794 0l-20 210v410q0 129 -55 185.5t-165 56.5q-62 0 -112.5 -18t-80 -55.5t-29.5 -96.5h-174q0 104 51 167.5t140.5 92t204.5 28.5q110 0 195 -37t133 -117.5t48 -209.5v-616h-136zM468 -24q-118 0 -195 42t-115 109t-38 141q0 97 48.5 158t132.5 89.5t189 28.5
q75 0 150.5 -15t147.5 -41v-98q-60 24 -135.5 38t-138.5 14q-96 0 -162 -39.5t-66 -134.5q0 -70 50.5 -120t161.5 -50q78 0 140.5 36.5t99 91.5t36.5 110h38q0 -96 -41.5 -178t-118.5 -132t-184 -50zM238 1298h625v-130h-625v130z" />
    <glyph glyph-name="Abreve" unicode="&#x102;" horiz-adv-x="1149" 
d="M52 0l432 1256h190l422 -1256h-164l-106 322h-500l-110 -322h-164zM366 444h420l-210 622zM581 1452q-127 0 -202.5 72t-75.5 183h130q0 -70 40.5 -109t107.5 -39q68 0 108 39t40 109h130q0 -111 -75.5 -183t-202.5 -72z" />
    <glyph glyph-name="abreve" unicode="&#x103;" horiz-adv-x="1101" 
d="M794 0l-20 210v410q0 129 -55 185.5t-165 56.5q-62 0 -112.5 -18t-80 -55.5t-29.5 -96.5h-174q0 104 51 167.5t140.5 92t204.5 28.5q110 0 195 -37t133 -117.5t48 -209.5v-616h-136zM468 -24q-118 0 -195 42t-115 109t-38 141q0 97 48.5 158t132.5 89.5t189 28.5
q75 0 150.5 -15t147.5 -41v-98q-60 24 -135.5 38t-138.5 14q-96 0 -162 -39.5t-66 -134.5q0 -70 50.5 -120t161.5 -50q78 0 140.5 36.5t99 91.5t36.5 110h38q0 -96 -41.5 -178t-118.5 -132t-184 -50zM550 1152q-127 0 -202.5 72t-75.5 183h130q0 -70 40.5 -109t107.5 -39
q68 0 108 39t40 109h130q0 -111 -75.5 -183t-202.5 -72z" />
    <glyph glyph-name="Aogonek" unicode="&#x104;" horiz-adv-x="1149" 
d="M52 0l432 1256h190l422 -1256h-164l-106 322h-500l-110 -322h-164zM366 444h420l-210 622zM1212 -332q-62 -35 -130.5 -54t-131.5 -19q-99 0 -158.5 45t-59.5 124t63.5 153t190.5 122l101 -39q-112 -46 -177 -96.5t-65 -109.5q0 -45 36.5 -66t86.5 -21q46 0 95.5 15.5
t110.5 48.5z" />
    <glyph glyph-name="aogonek" unicode="&#x105;" horiz-adv-x="1101" 
d="M794 0l-20 210v410q0 129 -55 185.5t-165 56.5q-62 0 -112.5 -18t-80 -55.5t-29.5 -96.5h-174q0 104 51 167.5t140.5 92t204.5 28.5q110 0 195 -37t133 -117.5t48 -209.5v-616h-136zM468 -24q-118 0 -195 42t-115 109t-38 141q0 97 48.5 158t132.5 89.5t189 28.5
q75 0 150.5 -15t147.5 -41v-98q-60 24 -135.5 38t-138.5 14q-96 0 -162 -39.5t-66 -134.5q0 -70 50.5 -120t161.5 -50q78 0 140.5 36.5t99 91.5t36.5 110h38q0 -96 -41.5 -178t-118.5 -132t-184 -50zM1055 -332q-62 -35 -130.5 -54t-131.5 -19q-99 0 -158.5 45t-59.5 124
t63.5 153t190.5 122l101 -39q-112 -46 -177 -96.5t-65 -109.5q0 -45 36.5 -66t86.5 -21q46 0 95.5 15.5t110.5 48.5z" />
    <glyph glyph-name="Cacute" unicode="&#x106;" horiz-adv-x="1226" 
d="M638 -24q-166 0 -286 83.5t-185 232t-65 344.5q0 209 70.5 352t192 216.5t273.5 73.5q201 0 323.5 -100.5t168.5 -261.5l-168 -34q-39 117 -124.5 186.5t-199.5 69.5q-99 0 -182.5 -56.5t-134.5 -168.5t-51 -277q0 -150 40.5 -267t122 -184t205.5 -67q149 0 236.5 80
t87.5 210h170q0 -135 -62 -231.5t-173.5 -148.5t-258.5 -52zM578 1419l-78 63l336 351l109 -89z" />
    <glyph glyph-name="cacute" unicode="&#x107;" horiz-adv-x="1032" 
d="M538 -24q-115 0 -214.5 62t-160.5 175t-61 267q0 158 61 270t160.5 171t214.5 59q81 0 145.5 -24.5t112.5 -67.5t79.5 -97.5t46.5 -114.5l-160 -14q-25 83 -83.5 131.5t-142.5 48.5q-71 0 -133.5 -40.5t-101.5 -121t-39 -200.5q0 -111 35.5 -192.5t97.5 -126.5t141 -45
q111 0 168.5 54.5t57.5 151.5h160q0 -100 -47 -178t-133.5 -123t-203.5 -45zM478 1119l-78 63l336 351l109 -89z" />
    <glyph glyph-name="Cdotaccent" unicode="&#x10a;" horiz-adv-x="1226" 
d="M638 -24q-166 0 -286 83.5t-185 232t-65 344.5q0 209 70.5 352t192 216.5t273.5 73.5q201 0 323.5 -100.5t168.5 -261.5l-168 -34q-39 117 -124.5 186.5t-199.5 69.5q-99 0 -182.5 -56.5t-134.5 -168.5t-51 -277q0 -150 40.5 -267t122 -184t205.5 -67q149 0 236.5 80
t87.5 210h170q0 -135 -62 -231.5t-173.5 -148.5t-258.5 -52zM535.868 1554.25q0 46.1133 32.3779 79.4727q32.3779 33.3584 81.4346 33.3584t83.3965 -33.3584q34.3408 -33.3594 34.3408 -79.4727t-34.3408 -77.5098q-34.3398 -31.3965 -83.3965 -31.3965t-81.4346 31.8867
t-32.3779 77.0195z" />
    <glyph glyph-name="cdotaccent" unicode="&#x10b;" horiz-adv-x="1032" 
d="M538 -24q-115 0 -214.5 62t-160.5 175t-61 267q0 158 61 270t160.5 171t214.5 59q81 0 145.5 -24.5t112.5 -67.5t79.5 -97.5t46.5 -114.5l-160 -14q-25 83 -83.5 131.5t-142.5 48.5q-71 0 -133.5 -40.5t-101.5 -121t-39 -200.5q0 -111 35.5 -192.5t97.5 -126.5t141 -45
q111 0 168.5 54.5t57.5 151.5h160q0 -100 -47 -178t-133.5 -123t-203.5 -45zM435.868 1254.25q0 46.1133 32.3779 79.4727q32.3779 33.3584 81.4346 33.3584t83.3965 -33.3584q34.3408 -33.3594 34.3408 -79.4727t-34.3408 -77.5098q-34.3398 -31.3965 -83.3965 -31.3965
t-81.4346 31.8867t-32.3779 77.0195z" />
    <glyph glyph-name="Ccaron" unicode="&#x10c;" horiz-adv-x="1226" 
d="M638 -24q-166 0 -286 83.5t-185 232t-65 344.5q0 209 70.5 352t192 216.5t273.5 73.5q201 0 323.5 -100.5t168.5 -261.5l-168 -34q-39 117 -124.5 186.5t-199.5 69.5q-99 0 -182.5 -56.5t-134.5 -168.5t-51 -277q0 -150 40.5 -267t122 -184t205.5 -67q149 0 236.5 80
t87.5 210h170q0 -135 -62 -231.5t-173.5 -148.5t-258.5 -52zM640 1407l-317 310l94 74l250 -268h-54l252 268l93 -74z" />
    <glyph glyph-name="ccaron" unicode="&#x10d;" horiz-adv-x="1032" 
d="M538 -24q-115 0 -214.5 62t-160.5 175t-61 267q0 158 61 270t160.5 171t214.5 59q81 0 145.5 -24.5t112.5 -67.5t79.5 -97.5t46.5 -114.5l-160 -14q-25 83 -83.5 131.5t-142.5 48.5q-71 0 -133.5 -40.5t-101.5 -121t-39 -200.5q0 -111 35.5 -192.5t97.5 -126.5t141 -45
q111 0 168.5 54.5t57.5 151.5h160q0 -100 -47 -178t-133.5 -123t-203.5 -45zM540 1107l-317 310l94 74l250 -268h-54l252 268l93 -74z" />
    <glyph glyph-name="Dcaron" unicode="&#x10e;" horiz-adv-x="1320" 
d="M202 1256h368q190 0 330 -77.5t217 -218.5t77 -332q0 -189 -77 -330t-217 -219.5t-330 -78.5h-368v1256zM358 1118v-982h212q142 0 244.5 64t158 175.5t55.5 252.5q0 142 -55.5 252.5t-158 174t-244.5 63.5h-212zM663 1407l-317 310l94 74l250 -268h-54l252 268l93 -74z
" />
    <glyph glyph-name="dcaron" unicode="&#x10f;" horiz-adv-x="1344" 
d="M1131 1035l-92 45q52 25 85.5 56t43.5 78q-37 2 -63 23.5t-26 57.5q0 33 24.5 58t64.5 25q48 0 80 -36.5t32 -87.5q0 -61 -36.5 -120.5t-112.5 -98.5zM544 -24q-116 0 -213 62.5t-155 176t-58 267.5q0 153 57 265t151.5 172.5t207.5 60.5q105 0 184.5 -51t123.5 -147
t44 -232h-60q0 95 -37.5 160t-97.5 98.5t-129 33.5q-78 0 -142.5 -43.5t-103 -124t-38.5 -192.5q0 -114 38.5 -196t103 -126t142.5 -44q65 0 125.5 34t99.5 99.5t39 158.5h60q0 -139 -45.5 -235.5t-123 -146.5t-173.5 -50zM852 0l-26 224v1140h156v-1364h-130z" />
    <glyph glyph-name="Dcroat" unicode="&#x110;" horiz-adv-x="1320" 
d="M44 695h625v-134h-625v134zM202 1256h368q190 0 330 -77.5t217 -218.5t77 -332q0 -189 -77 -330t-217 -219.5t-330 -78.5h-368v1256zM358 1118v-982h212q142 0 244.5 64t158 175.5t55.5 252.5q0 142 -55.5 252.5t-158 174t-244.5 63.5h-212z" />
    <glyph glyph-name="dcroat" unicode="&#x111;" horiz-adv-x="1185" 
d="M544 -24q-116 0 -213 62.5t-155 176t-58 267.5q0 153 57 265t151.5 172.5t207.5 60.5q105 0 184.5 -51t123.5 -147t44 -232h-60q0 95 -37.5 160t-97.5 98.5t-129 33.5q-78 0 -142.5 -43.5t-103 -124t-38.5 -192.5q0 -114 38.5 -196t103 -126t142.5 -44q65 0 125.5 34
t99.5 99.5t39 158.5h60q0 -139 -45.5 -235.5t-123 -146.5t-173.5 -50zM852 0l-26 224v1140h156v-1364h-130zM581 1102v122h554v-122h-554z" />
    <glyph glyph-name="Emacron" unicode="&#x112;" horiz-adv-x="1124" 
d="M200 0v1256h774v-134h-618v-422h582v-134h-582v-430h618v-136h-774zM250 1598h625v-130h-625v130z" />
    <glyph glyph-name="emacron" unicode="&#x113;" horiz-adv-x="1027" 
d="M534 -24q-124 0 -221.5 63.5t-154 176.5t-56.5 260q0 157 56 270t153.5 173.5t222.5 60.5q109 0 186 -44t124 -119t65.5 -169.5t10.5 -195.5h-692v96h589l-46 -30q3 59 -6.5 118t-35.5 108.5t-73 79.5t-120 30q-92 0 -154 -47t-93 -123.5t-31 -165.5v-64
q0 -100 30.5 -179t91.5 -125t154 -46t153 45t73 133h162q-15 -95 -68 -163.5t-135 -105.5t-185 -37zM202 1298h625v-130h-625v130z" />
    <glyph glyph-name="Edotaccent" unicode="&#x116;" horiz-adv-x="1124" 
d="M200 0v1256h774v-134h-618v-422h582v-134h-582v-430h618v-136h-774zM460.868 1554.25q0 46.1133 32.3779 79.4727q32.3779 33.3584 81.4346 33.3584t83.3965 -33.3584q34.3408 -33.3594 34.3408 -79.4727t-34.3408 -77.5098q-34.3398 -31.3965 -83.3965 -31.3965
t-81.4346 31.8867t-32.3779 77.0195z" />
    <glyph glyph-name="edotaccent" unicode="&#x117;" horiz-adv-x="1027" 
d="M534 -24q-124 0 -221.5 63.5t-154 176.5t-56.5 260q0 157 56 270t153.5 173.5t222.5 60.5q109 0 186 -44t124 -119t65.5 -169.5t10.5 -195.5h-692v96h589l-46 -30q3 59 -6.5 118t-35.5 108.5t-73 79.5t-120 30q-92 0 -154 -47t-93 -123.5t-31 -165.5v-64
q0 -100 30.5 -179t91.5 -125t154 -46t153 45t73 133h162q-15 -95 -68 -163.5t-135 -105.5t-185 -37zM412.868 1254.25q0 46.1133 32.3779 79.4727q32.3779 33.3584 81.4346 33.3584t83.3965 -33.3584q34.3408 -33.3594 34.3408 -79.4727t-34.3408 -77.5098
q-34.3398 -31.3965 -83.3965 -31.3965t-81.4346 31.8867t-32.3779 77.0195z" />
    <glyph glyph-name="Eogonek" unicode="&#x118;" horiz-adv-x="1124" 
d="M200 0v1256h774v-134h-618v-422h582v-134h-582v-430h618v-136h-774zM853 -332q-62 -35 -130.5 -54t-131.5 -19q-99 0 -158.5 45t-59.5 124t63.5 153t190.5 122l101 -39q-112 -46 -177 -96.5t-65 -109.5q0 -45 36.5 -66t86.5 -21q46 0 95.5 15.5t110.5 48.5z" />
    <glyph glyph-name="eogonek" unicode="&#x119;" horiz-adv-x="1027" 
d="M534 -24q-124 0 -221.5 63.5t-154 176.5t-56.5 260q0 157 56 270t153.5 173.5t222.5 60.5q109 0 186 -44t124 -119t65.5 -169.5t10.5 -195.5h-692v96h589l-46 -30q3 59 -6.5 118t-35.5 108.5t-73 79.5t-120 30q-92 0 -154 -47t-93 -123.5t-31 -165.5v-64
q0 -100 30.5 -179t91.5 -125t154 -46t153 45t73 133h162q-15 -95 -68 -163.5t-135 -105.5t-185 -37zM763 -332q-62 -35 -130.5 -54t-131.5 -19q-99 0 -158.5 45t-59.5 124t63.5 153t190.5 122l101 -39q-112 -46 -177 -96.5t-65 -109.5q0 -45 36.5 -66t86.5 -21
q46 0 95.5 15.5t110.5 48.5z" />
    <glyph glyph-name="Ecaron" unicode="&#x11a;" horiz-adv-x="1124" 
d="M200 0v1256h774v-134h-618v-422h582v-134h-582v-430h618v-136h-774zM565 1407l-317 310l94 74l250 -268h-54l252 268l93 -74z" />
    <glyph glyph-name="ecaron" unicode="&#x11b;" horiz-adv-x="1027" 
d="M534 -24q-124 0 -221.5 63.5t-154 176.5t-56.5 260q0 157 56 270t153.5 173.5t222.5 60.5q109 0 186 -44t124 -119t65.5 -169.5t10.5 -195.5h-692v96h589l-46 -30q3 59 -6.5 118t-35.5 108.5t-73 79.5t-120 30q-92 0 -154 -47t-93 -123.5t-31 -165.5v-64
q0 -100 30.5 -179t91.5 -125t154 -46t153 45t73 133h162q-15 -95 -68 -163.5t-135 -105.5t-185 -37zM517 1107l-317 310l94 74l250 -268h-54l252 268l93 -74z" />
    <glyph glyph-name="Gbreve" unicode="&#x11e;" horiz-adv-x="1288" 
d="M644 -24q-150 0 -273 78t-196 221t-73 339q0 163 47 287t129 208t188.5 126.5t225.5 42.5q147 0 258 -60.5t190 -191.5l-148 -52q-67 83 -143.5 122.5t-162.5 39.5q-113 0 -208 -63t-152.5 -180t-57.5 -279q0 -144 47 -255.5t133.5 -175t205.5 -63.5q91 0 163.5 42
t114.5 126.5t42 213.5h48q0 -160 -38 -278t-121.5 -183t-218.5 -65zM1002 0l-28 296v210l-316 10v106h468v-622h-124zM644 1452q-127 0 -202.5 72t-75.5 183h130q0 -70 40.5 -109t107.5 -39q68 0 108 39t40 109h130q0 -111 -75.5 -183t-202.5 -72z" />
    <glyph glyph-name="gbreve" unicode="&#x11f;" horiz-adv-x="1129" 
d="M540 -492q-147 0 -255 41.5t-167.5 111t-59.5 153.5q0 111 81.5 169.5t210.5 58.5l86 -54q-108 0 -167 -45t-59 -123t84 -132t246 -54q120 0 210.5 34.5t141 90t50.5 119.5q0 45 -33 77.5t-101 32.5h-372q-97 0 -167.5 29.5t-108.5 77.5t-38 105q0 60 34 102t88.5 64
t117.5 22l30 -58q-30 0 -60.5 -13.5t-51 -40t-20.5 -66.5q0 -46 38 -77t138 -31h372q135 0 212.5 -57t77.5 -159q0 -94 -67 -180.5t-192 -142t-299 -55.5zM568 280q-110 0 -198.5 44t-140 123t-51.5 183q0 105 51.5 184t140 122.5t198.5 43.5q107 0 194.5 -43.5
t139.5 -122.5t52 -184q0 -104 -52 -183t-139.5 -123t-194.5 -44zM568 392q110 0 171 68t61 170q0 105 -61 170.5t-171 65.5q-109 0 -171.5 -65.5t-62.5 -170.5q0 -102 62.5 -170t171.5 -68zM882 828l-74 30q0 84 33 147.5t94 99t145 35.5l-12 -154q-90 0 -138 -38.5
t-48 -119.5zM565 1152q-127 0 -202.5 72t-75.5 183h130q0 -70 40.5 -109t107.5 -39q68 0 108 39t40 109h130q0 -111 -75.5 -183t-202.5 -72z" />
    <glyph glyph-name="Gdotaccent" unicode="&#x120;" horiz-adv-x="1288" 
d="M644 -24q-150 0 -273 78t-196 221t-73 339q0 163 47 287t129 208t188.5 126.5t225.5 42.5q147 0 258 -60.5t190 -191.5l-148 -52q-67 83 -143.5 122.5t-162.5 39.5q-113 0 -208 -63t-152.5 -180t-57.5 -279q0 -144 47 -255.5t133.5 -175t205.5 -63.5q91 0 163.5 42
t114.5 126.5t42 213.5h48q0 -160 -38 -278t-121.5 -183t-218.5 -65zM1002 0l-28 296v210l-316 10v106h468v-622h-124zM542.868 1554.25q0 46.1133 32.3779 79.4727q32.3779 33.3584 81.4346 33.3584t83.3965 -33.3584q34.3408 -33.3594 34.3408 -79.4727t-34.3408 -77.5098
q-34.3398 -31.3965 -83.3965 -31.3965t-81.4346 31.8867t-32.3779 77.0195z" />
    <glyph glyph-name="gdotaccent" unicode="&#x121;" horiz-adv-x="1129" 
d="M540 -492q-147 0 -255 41.5t-167.5 111t-59.5 153.5q0 111 81.5 169.5t210.5 58.5l86 -54q-108 0 -167 -45t-59 -123t84 -132t246 -54q120 0 210.5 34.5t141 90t50.5 119.5q0 45 -33 77.5t-101 32.5h-372q-97 0 -167.5 29.5t-108.5 77.5t-38 105q0 60 34 102t88.5 64
t117.5 22l30 -58q-30 0 -60.5 -13.5t-51 -40t-20.5 -66.5q0 -46 38 -77t138 -31h372q135 0 212.5 -57t77.5 -159q0 -94 -67 -180.5t-192 -142t-299 -55.5zM568 280q-110 0 -198.5 44t-140 123t-51.5 183q0 105 51.5 184t140 122.5t198.5 43.5q107 0 194.5 -43.5
t139.5 -122.5t52 -184q0 -104 -52 -183t-139.5 -123t-194.5 -44zM568 392q110 0 171 68t61 170q0 105 -61 170.5t-171 65.5q-109 0 -171.5 -65.5t-62.5 -170.5q0 -102 62.5 -170t171.5 -68zM882 828l-74 30q0 84 33 147.5t94 99t145 35.5l-12 -154q-90 0 -138 -38.5
t-48 -119.5zM463.868 1254.25q0 46.1133 32.3779 79.4727q32.3779 33.3584 81.4346 33.3584t83.3965 -33.3584q34.3408 -33.3594 34.3408 -79.4727t-34.3408 -77.5098q-34.3398 -31.3965 -83.3965 -31.3965t-81.4346 31.8867t-32.3779 77.0195z" />
    <glyph glyph-name="uni0122" unicode="&#x122;" horiz-adv-x="1288" 
d="M644 -24q-150 0 -273 78t-196 221t-73 339q0 163 47 287t129 208t188.5 126.5t225.5 42.5q147 0 258 -60.5t190 -191.5l-148 -52q-67 83 -143.5 122.5t-162.5 39.5q-113 0 -208 -63t-152.5 -180t-57.5 -279q0 -144 47 -255.5t133.5 -175t205.5 -63.5q91 0 163.5 42
t114.5 126.5t42 213.5h48q0 -160 -38 -278t-121.5 -183t-218.5 -65zM1002 0l-28 296v210l-316 10v106h468v-622h-124zM597 -439l-89 45q53 26 89 57t49 77q-37 2 -61 24t-21 58q2 35 28.5 58.5t65.5 23.5q46 0 76 -34t27 -90q-2 -56 -43 -118t-121 -101z" />
    <glyph glyph-name="uni0123" unicode="&#x123;" horiz-adv-x="1129" 
d="M540 -492q-147 0 -255 41.5t-167.5 111t-59.5 153.5q0 111 81.5 169.5t210.5 58.5l86 -54q-108 0 -167 -45t-59 -123t84 -132t246 -54q120 0 210.5 34.5t141 90t50.5 119.5q0 45 -33 77.5t-101 32.5h-372q-97 0 -167.5 29.5t-108.5 77.5t-38 105q0 60 34 102t88.5 64
t117.5 22l30 -58q-30 0 -60.5 -13.5t-51 -40t-20.5 -66.5q0 -46 38 -77t138 -31h372q135 0 212.5 -57t77.5 -159q0 -94 -67 -180.5t-192 -142t-299 -55.5zM568 280q-110 0 -198.5 44t-140 123t-51.5 183q0 105 51.5 184t140 122.5t198.5 43.5q107 0 194.5 -43.5
t139.5 -122.5t52 -184q0 -104 -52 -183t-139.5 -123t-194.5 -44zM568 392q110 0 171 68t61 170q0 105 -61 170.5t-171 65.5q-109 0 -171.5 -65.5t-62.5 -170.5q0 -102 62.5 -170t171.5 -68zM882 828l-74 30q0 84 33 147.5t94 99t145 35.5l-12 -154q-90 0 -138 -38.5
t-48 -119.5zM625 1381l89 -45q-53 -26 -89 -57t-49 -77q37 -2 61 -24t21 -58q-2 -35 -28.5 -58.5t-65.5 -23.5q-46 0 -76 34t-27 90q2 56 43 118t121 101z" />
    <glyph glyph-name="Hbar" unicode="&#x126;" horiz-adv-x="1337" 
d="M202 1256h156v-600h622v600h154v-1256h-154v521h-622v-521h-156v1256zM290 825v126h776v-126h-776z" />
    <glyph glyph-name="hbar" unicode="&#x127;" horiz-adv-x="1207" 
d="M882 0v562q0 137 -65.5 208.5t-178.5 71.5q-86 0 -149 -47t-97 -134.5t-34 -208.5h-60q0 167 44 285t128.5 180.5t205.5 62.5q113 0 193.5 -50.5t123.5 -144.5t43 -223v-562h-154zM202 0v1364h156v-1364h-156zM60 1079v114h470v-114h-470z" />
    <glyph glyph-name="Imacron" unicode="&#x12a;" horiz-adv-x="560" 
d="M202 0v1256h156v-1256h-156zM73.7725 1598h412.483v-130h-412.483v130z" />
    <glyph glyph-name="imacron" unicode="&#x12b;" horiz-adv-x="596" 
d="M212 0v958h156v-958h-156zM82.7725 1298h412.483v-130h-412.483v130z" />
    <glyph glyph-name="Iogonek" unicode="&#x12e;" horiz-adv-x="560" 
d="M202 0v1256h156v-1256h-156zM482 -332q-62 -35 -130.5 -54t-131.5 -19q-99 0 -158.5 45t-59.5 124t63.5 153t190.5 122l101 -39q-112 -46 -177 -96.5t-65 -109.5q0 -45 36.5 -66t86.5 -21q46 0 95.5 15.5t110.5 48.5z" />
    <glyph glyph-name="iogonek" unicode="&#x12f;" horiz-adv-x="596" 
d="M212 0v958h156v-958h-156zM187.868 1254.25q0 46.1133 32.3779 79.4727q32.3779 33.3584 81.4346 33.3584t83.3965 -33.3584q34.3408 -33.3594 34.3408 -79.4727t-34.3408 -77.5098q-34.3398 -31.3965 -83.3965 -31.3965t-81.4346 31.8867t-32.3779 77.0195zM492 -332
q-62 -35 -130.5 -54t-131.5 -19q-99 0 -158.5 45t-59.5 124t63.5 153t190.5 122l101 -39q-112 -46 -177 -96.5t-65 -109.5q0 -45 36.5 -66t86.5 -21q46 0 95.5 15.5t110.5 48.5z" />
    <glyph glyph-name="Idotaccent" unicode="&#x130;" horiz-adv-x="560" 
d="M202 0v1256h156v-1256h-156zM178.868 1554.25q0 46.1133 32.3779 79.4727q32.3779 33.3584 81.4346 33.3584t83.3965 -33.3584q34.3408 -33.3594 34.3408 -79.4727t-34.3408 -77.5098q-34.3398 -31.3965 -83.3965 -31.3965t-81.4346 31.8867t-32.3779 77.0195z" />
    <glyph glyph-name="dotlessi" unicode="&#x131;" horiz-adv-x="596" 
d="M212 0v958h156v-958h-156z" />
    <glyph glyph-name="uni0136" unicode="&#x136;" horiz-adv-x="1215" 
d="M924 1256h216l-802 -826v220zM564 726l610 -726h-204l-518 624zM202 1256h158v-1256h-158v1256zM561 -439l-89 45q53 26 89 57t49 77q-37 2 -61 24t-21 58q2 35 28.5 58.5t65.5 23.5q46 0 76 -34t27 -90q-2 -56 -43 -118t-121 -101z" />
    <glyph glyph-name="uni0137" unicode="&#x137;" horiz-adv-x="1127" 
d="M202 0v1364h156v-1364h-156zM334 548l488 408h218l-706 -574v166zM870 0l-454 604l158 28l488 -632h-192zM517 -439l-89 45q53 26 89 57t49 77q-37 2 -61 24t-21 58q2 35 28.5 58.5t65.5 23.5q46 0 76 -34t27 -90q-2 -56 -43 -118t-121 -101z" />
    <glyph glyph-name="Lacute" unicode="&#x139;" horiz-adv-x="935" 
d="M358 1256v-1120h560v-136h-716v1256h156zM422 1419l-78 63l336 351l109 -89z" />
    <glyph glyph-name="lacute" unicode="&#x13a;" horiz-adv-x="560" 
d="M202 0v1364h156v-1364h-156zM221 1538l-78 63l336 351l109 -89z" />
    <glyph glyph-name="uni013B" unicode="&#x13b;" horiz-adv-x="935" 
d="M358 1256v-1120h560v-136h-716v1256h156zM421 -439l-89 45q53 26 89 57t49 77q-37 2 -61 24t-21 58q2 35 28.5 58.5t65.5 23.5q46 0 76 -34t27 -90q-2 -56 -43 -118t-121 -101z" />
    <glyph glyph-name="uni013C" unicode="&#x13c;" horiz-adv-x="560" 
d="M202 0v1364h156v-1364h-156zM233 -439l-89 45q53 26 89 57t49 77q-37 2 -61 24t-21 58q2 35 28.5 58.5t65.5 23.5q46 0 76 -34t27 -90q-2 -56 -43 -118t-121 -101z" />
    <glyph glyph-name="Lcaron" unicode="&#x13d;" horiz-adv-x="935" 
d="M358 1256v-1120h560v-136h-716v1256h156zM484 1407l-317 310l94 74l250 -268h-54l252 268l93 -74z" />
    <glyph glyph-name="lcaron" unicode="&#x13e;" horiz-adv-x="560" 
d="M202 0v1364h156v-1364h-156zM283 1526l-317 310l94 74l250 -268h-54l252 268l93 -74z" />
    <glyph glyph-name="Lslash" unicode="&#x141;" horiz-adv-x="935" 
d="M71 631l-24 133l488 83l24 -132zM358 1256v-1120h560v-136h-716v1256h156z" />
    <glyph glyph-name="lslash" unicode="&#x142;" horiz-adv-x="560" 
d="M65 728l-21 106l488 83l20 -106zM202 0v1364h156v-1364h-156z" />
    <glyph glyph-name="Nacute" unicode="&#x143;" horiz-adv-x="1368" 
d="M200 1256h186l638 -1034h-14v1034h156v-1256h-174l-660 1068h24v-1068h-156v1256zM625 1419l-78 63l336 351l109 -89z" />
    <glyph glyph-name="nacute" unicode="&#x144;" horiz-adv-x="1207" 
d="M882 0v562q0 137 -65.5 208.5t-178.5 71.5q-86 0 -149 -47t-97 -134.5t-34 -208.5h-60q0 167 44 285t128.5 180.5t205.5 62.5q113 0 193.5 -50.5t123.5 -144.5t43 -223v-562h-154zM202 0v956h134l22 -220v-736h-156zM572 1133l-78 63l336 351l109 -89z" />
    <glyph glyph-name="uni0145" unicode="&#x145;" horiz-adv-x="1368" 
d="M200 1256h186l638 -1034h-14v1034h156v-1256h-174l-660 1068h24v-1068h-156v1256zM637 -439l-89 45q53 26 89 57t49 77q-37 2 -61 24t-21 58q2 35 28.5 58.5t65.5 23.5q46 0 76 -34t27 -90q-2 -56 -43 -118t-121 -101z" />
    <glyph glyph-name="uni0146" unicode="&#x146;" horiz-adv-x="1207" 
d="M882 0v562q0 137 -65.5 208.5t-178.5 71.5q-86 0 -149 -47t-97 -134.5t-34 -208.5h-60q0 167 44 285t128.5 180.5t205.5 62.5q113 0 193.5 -50.5t123.5 -144.5t43 -223v-562h-154zM202 0v956h134l22 -220v-736h-156zM557 -439l-89 45q53 26 89 57t49 77q-37 2 -61 24
t-21 58q2 35 28.5 58.5t65.5 23.5q46 0 76 -34t27 -90q-2 -56 -43 -118t-121 -101z" />
    <glyph glyph-name="Ncaron" unicode="&#x147;" horiz-adv-x="1368" 
d="M200 1256h186l638 -1034h-14v1034h156v-1256h-174l-660 1068h24v-1068h-156v1256zM687 1407l-317 310l94 74l250 -268h-54l252 268l93 -74z" />
    <glyph glyph-name="ncaron" unicode="&#x148;" horiz-adv-x="1207" 
d="M882 0v562q0 137 -65.5 208.5t-178.5 71.5q-86 0 -149 -47t-97 -134.5t-34 -208.5h-60q0 167 44 285t128.5 180.5t205.5 62.5q113 0 193.5 -50.5t123.5 -144.5t43 -223v-562h-154zM202 0v956h134l22 -220v-736h-156zM634 1121l-317 310l94 74l250 -268h-54l252 268
l93 -74z" />
    <glyph glyph-name="Eng" unicode="&#x14a;" horiz-adv-x="1368" 
d="M864 -492q-70 0 -135 18.5t-134 55.5l9 136q59 -33 115.5 -53.5t116.5 -20.5q83 0 132 54t49 168l-4 494h153v-496q0 -190 -83.5 -273t-218.5 -83zM200 1256h186l638 -1034h-14v1034h156v-1256l-45 -202l-789 1270h24v-1068h-156v1256z" />
    <glyph glyph-name="eng" unicode="&#x14b;" horiz-adv-x="1240" 
d="M734 -492q-69 0 -134 18.5t-134 55.5l9 136q58 -33 114.5 -53.5t116.5 -20.5q84 0 130.5 54t46.5 168v661h154v-663q0 -190 -83.5 -273t-219.5 -83zM882 0v562q0 137 -65.5 208.5t-178.5 71.5q-86 0 -149 -47t-97 -134.5t-34 -208.5h-60q0 167 44 285t128.5 180.5
t205.5 62.5q113 0 193.5 -50.5t123.5 -144.5t43 -223v-562h-154zM202 0v956h134l22 -220v-736h-156z" />
    <glyph glyph-name="Omacron" unicode="&#x14c;" horiz-adv-x="1291" 
d="M646 -24q-156 0 -279 72t-194 216.5t-71 361.5q0 220 71 364.5t194 216t279 71.5t279 -72t194 -217t71 -363q0 -219 -71 -363.5t-194 -215.5t-279 -71zM646 120q177 0 279.5 129t102.5 379q0 245 -102.5 377.5t-279.5 132.5q-175 0 -278.5 -133t-103.5 -379
q0 -249 103.5 -377.5t278.5 -128.5zM341 1598h625v-130h-625v130z" />
    <glyph glyph-name="omacron" unicode="&#x14d;" horiz-adv-x="1093" 
d="M548 -24q-129 0 -229.5 57t-158.5 169t-58 276q0 165 58 276.5t158.5 168.5t229.5 57q128 0 228.5 -57t158 -168.5t57.5 -276.5q0 -164 -57.5 -276t-158 -169t-228.5 -57zM544 112q93 0 158 44.5t98.5 126.5t33.5 195q0 171 -71 269.5t-211 98.5q-94 0 -158.5 -44.5
t-98 -127t-33.5 -196.5q0 -169 71.5 -267.5t210.5 -98.5zM235 1298h625v-130h-625v130z" />
    <glyph glyph-name="Ohungarumlaut" unicode="&#x150;" horiz-adv-x="1291" 
d="M646 -24q-156 0 -279 72t-194 216.5t-71 361.5q0 220 71 364.5t194 216t279 71.5t279 -72t194 -217t71 -363q0 -219 -71 -363.5t-194 -215.5t-279 -71zM646 120q177 0 279.5 129t102.5 379q0 245 -102.5 377.5t-279.5 132.5q-175 0 -278.5 -133t-103.5 -379
q0 -249 103.5 -377.5t278.5 -128.5zM797 1393l-85 13l28 326l121 -22zM562 1401l-87 10l16 328l123 -16z" />
    <glyph glyph-name="ohungarumlaut" unicode="&#x151;" horiz-adv-x="1093" 
d="M548 -24q-129 0 -229.5 57t-158.5 169t-58 276q0 165 58 276.5t158.5 168.5t229.5 57q128 0 228.5 -57t158 -168.5t57.5 -276.5q0 -164 -57.5 -276t-158 -169t-228.5 -57zM544 112q93 0 158 44.5t98.5 126.5t33.5 195q0 171 -71 269.5t-211 98.5q-94 0 -158.5 -44.5
t-98 -127t-33.5 -196.5q0 -169 71.5 -267.5t210.5 -98.5zM691 1093l-85 13l28 326l121 -22zM456 1101l-87 10l16 328l123 -16z" />
    <glyph glyph-name="OE" unicode="&#x152;" horiz-adv-x="1754" 
d="M630 -24q-154 0 -273 72.5t-187 217.5t-68 363t68 362t188 215.5t277 71.5q118 0 210 -39t152 -123l-96 -66q-54 43 -119 65.5t-143 22.5q-183 0 -279 -133.5t-96 -380.5q0 -245 96 -374.5t280 -129.5q85 0 145.5 25t119.5 66l92 -100q-60 -57 -151.5 -96t-215.5 -39z
M896 0v1256h708v-134h-587l32 36v-493l-32 35h551v-134h-551l32 35v-500l-32 35h587v-136h-708z" />
    <glyph glyph-name="oe" unicode="&#x153;" horiz-adv-x="1686" 
d="M526.911 -24q-122.858 0 -218.574 57t-150.954 169t-55.2383 276q0 165 55.2383 276.5t150.954 168.5t218.574 57q121.906 0 217.622 -57q95.7148 -57 150.478 -168.5t54.7627 -276.5q0 -164 -54.7627 -276t-150.478 -169q-95.7158 -57 -217.622 -57zM523.102 112
q88.5723 0 150.479 44.5q61.9053 44.5 93.8105 126.5q31.9043 82 31.9043 195q0 171 -67.6191 269.5q-67.6201 98.5 -200.955 98.5q-89.5254 0 -150.954 -44.5q-61.4297 -44.5 -93.335 -127q-31.9043 -82.5 -31.9043 -196.5q0 -169 68.0957 -267.5t200.479 -98.5z
M1211.58 -24q-118.098 0 -210.955 63.5q-92.8584 63.5 -146.669 176.5q-53.8096 113 -53.8096 260q0 157 53.334 270t146.191 173.5q92.8584 60.5 211.908 60.5q103.811 0 177.145 -44t118.097 -119t62.3818 -169.5t10 -195.5h-659.056v96h560.959l-43.8096 -30
q2.85742 59 -6.19043 118t-33.8105 108.5q-24.7617 49.5 -69.5244 79.5t-114.287 30q-87.6201 0 -146.668 -47q-59.0488 -47 -88.5732 -123.5t-29.5244 -165.5v-64q0 -100 29.0488 -179q29.0479 -79 87.1436 -125t146.669 -46q88.5723 0 145.716 45t69.5244 133h154.287
q-14.2852 -95 -64.7617 -163.5q-50.4775 -68.5 -128.573 -105.5q-78.0967 -37 -176.192 -37z" />
    <glyph glyph-name="Racute" unicode="&#x154;" horiz-adv-x="1225" 
d="M202 0v1256h438q215 0 325.5 -102.5t110.5 -269.5q0 -165 -110.5 -267.5t-325.5 -102.5h-282v-514h-156zM906 0l-360 570h170l392 -570h-202zM358 624h270q141 0 214.5 69.5t73.5 180.5q0 114 -70.5 181t-205.5 67h-282v-498zM554 1419l-78 63l336 351l109 -89z" />
    <glyph glyph-name="racute" unicode="&#x155;" horiz-adv-x="723" 
d="M202 0v958h156v-958h-156zM310 432q0 182 35 302.5t102.5 180t164.5 59.5q32 0 58.5 -4.5t53.5 -13.5l-10 -154q-28 9 -61 15.5t-59 6.5q-85 0 -137 -48.5t-75.5 -136.5t-23.5 -207h-48zM406 1119l-78 63l336 351l109 -89z" />
    <glyph glyph-name="uni0156" unicode="&#x156;" horiz-adv-x="1225" 
d="M202 0v1256h438q215 0 325.5 -102.5t110.5 -269.5q0 -165 -110.5 -267.5t-325.5 -102.5h-282v-514h-156zM906 0l-360 570h170l392 -570h-202zM358 624h270q141 0 214.5 69.5t73.5 180.5q0 114 -70.5 181t-205.5 67h-282v-498zM566 -439l-89 45q53 26 89 57t49 77
q-37 2 -61 24t-21 58q2 35 28.5 58.5t65.5 23.5q46 0 76 -34t27 -90q-2 -56 -43 -118t-121 -101z" />
    <glyph glyph-name="uni0157" unicode="&#x157;" horiz-adv-x="723" 
d="M202 0v958h156v-958h-156zM310 432q0 182 35 302.5t102.5 180t164.5 59.5q32 0 58.5 -4.5t53.5 -13.5l-10 -154q-28 9 -61 15.5t-59 6.5q-85 0 -137 -48.5t-75.5 -136.5t-23.5 -207h-48zM425 -432l-89 45q53 26 89 57t49 77q-37 2 -61 24t-21 58q2 35 28.5 58.5
t65.5 23.5q46 0 76 -34t27 -90q-2 -56 -43 -118t-121 -101z" />
    <glyph glyph-name="Rcaron" unicode="&#x158;" horiz-adv-x="1225" 
d="M202 0v1256h438q215 0 325.5 -102.5t110.5 -269.5q0 -165 -110.5 -267.5t-325.5 -102.5h-282v-514h-156zM906 0l-360 570h170l392 -570h-202zM358 624h270q141 0 214.5 69.5t73.5 180.5q0 114 -70.5 181t-205.5 67h-282v-498zM616 1407l-317 310l94 74l250 -268h-54
l252 268l93 -74z" />
    <glyph glyph-name="rcaron" unicode="&#x159;" horiz-adv-x="723" 
d="M202 0v958h156v-958h-156zM310 432q0 182 35 302.5t102.5 180t164.5 59.5q32 0 58.5 -4.5t53.5 -13.5l-10 -154q-28 9 -61 15.5t-59 6.5q-85 0 -137 -48.5t-75.5 -136.5t-23.5 -207h-48zM468 1107l-317 310l94 74l250 -268h-54l252 268l93 -74z" />
    <glyph glyph-name="Sacute" unicode="&#x15a;" horiz-adv-x="1209" 
d="M604 -24q-126 0 -231 45.5t-169 134.5t-66 220h152q0 -88 43 -144.5t114 -84t155 -27.5q91 0 158 29t103.5 76.5t36.5 104.5q0 80 -49 129.5t-145 80.5l-222 78q-156 56 -236 128t-80 202q0 146 112.5 238t319.5 92q192 0 300 -88.5t124 -237.5h-154q-15 87 -81.5 135.5
t-188.5 48.5q-124 0 -193 -55t-69 -139q0 -69 43.5 -109.5t136.5 -72.5l260 -90q135 -45 213.5 -126t78.5 -210q0 -100 -53.5 -181t-157.5 -129t-255 -48zM546 1419l-78 63l336 351l109 -89z" />
    <glyph glyph-name="sacute" unicode="&#x15b;" horiz-adv-x="1051" 
d="M546 -24q-139 0 -232 39.5t-141 109t-51 159.5h150q5 -91 73.5 -136.5t186.5 -45.5q62 0 114 20t83 55t31 79q0 56 -41 88t-131 56l-186 60q-121 38 -185.5 104.5t-64.5 159.5q0 116 102 186t268 70q176 0 273 -72t101 -180h-154q-9 63 -64 95.5t-156 32.5
q-97 0 -151.5 -43.5t-54.5 -96.5q0 -99 170 -146l190 -64q123 -37 188.5 -97t65.5 -153q0 -72 -47 -136t-133 -104t-204 -40zM467 1119l-78 63l336 351l109 -89z" />
    <glyph glyph-name="Scedilla" unicode="&#x15e;" horiz-adv-x="1209" 
d="M604 -24q-126 0 -231 45.5t-169 134.5t-66 220h152q0 -88 43 -144.5t114 -84t155 -27.5q91 0 158 29t103.5 76.5t36.5 104.5q0 80 -49 129.5t-145 80.5l-222 78q-156 56 -236 128t-80 202q0 146 112.5 238t319.5 92q192 0 300 -88.5t124 -237.5h-154q-15 87 -81.5 135.5
t-188.5 48.5q-124 0 -193 -55t-69 -139q0 -69 43.5 -109.5t136.5 -72.5l260 -90q135 -45 213.5 -126t78.5 -210q0 -100 -53.5 -181t-157.5 -129t-255 -48zM413 -356l27 66q74 -39 133 -44.5t94.5 14.5t38.5 55t-26.5 61t-75.5 44t-95 29l71 187l89 -8l-67 -175l-36 57
q90 -20 151 -49t91 -67t26 -86q-4 -57 -48.5 -91.5t-110.5 -45t-136 2.5t-126 50z" />
    <glyph glyph-name="scedilla" unicode="&#x15f;" horiz-adv-x="1051" 
d="M546 -24q-139 0 -232 39.5t-141 109t-51 159.5h150q5 -91 73.5 -136.5t186.5 -45.5q62 0 114 20t83 55t31 79q0 56 -41 88t-131 56l-186 60q-121 38 -185.5 104.5t-64.5 159.5q0 116 102 186t268 70q176 0 273 -72t101 -180h-154q-9 63 -64 95.5t-156 32.5
q-97 0 -151.5 -43.5t-54.5 -96.5q0 -99 170 -146l190 -64q123 -37 188.5 -97t65.5 -153q0 -72 -47 -136t-133 -104t-204 -40zM340 -355l27 66q74 -39 133 -44.5t94.5 14.5t38.5 55t-26.5 61t-75.5 44t-95 29l71 187l89 -8l-67 -175l-36 57q90 -20 151 -49t91 -67t26 -86
q-4 -57 -48.5 -91.5t-110.5 -45t-136 2.5t-126 50z" />
    <glyph glyph-name="Scaron" unicode="&#x160;" horiz-adv-x="1209" 
d="M604 -24q-126 0 -231 45.5t-169 134.5t-66 220h152q0 -88 43 -144.5t114 -84t155 -27.5q91 0 158 29t103.5 76.5t36.5 104.5q0 80 -49 129.5t-145 80.5l-222 78q-156 56 -236 128t-80 202q0 146 112.5 238t319.5 92q192 0 300 -88.5t124 -237.5h-154q-15 87 -81.5 135.5
t-188.5 48.5q-124 0 -193 -55t-69 -139q0 -69 43.5 -109.5t136.5 -72.5l260 -90q135 -45 213.5 -126t78.5 -210q0 -100 -53.5 -181t-157.5 -129t-255 -48zM608 1407l-317 310l94 74l250 -268h-54l252 268l93 -74z" />
    <glyph glyph-name="scaron" unicode="&#x161;" horiz-adv-x="1051" 
d="M546 -24q-139 0 -232 39.5t-141 109t-51 159.5h150q5 -91 73.5 -136.5t186.5 -45.5q62 0 114 20t83 55t31 79q0 56 -41 88t-131 56l-186 60q-121 38 -185.5 104.5t-64.5 159.5q0 116 102 186t268 70q176 0 273 -72t101 -180h-154q-9 63 -64 95.5t-156 32.5
q-97 0 -151.5 -43.5t-54.5 -96.5q0 -99 170 -146l190 -64q123 -37 188.5 -97t65.5 -153q0 -72 -47 -136t-133 -104t-204 -40zM529 1107l-317 310l94 74l250 -268h-54l252 268l93 -74z" />
    <glyph glyph-name="uni0162" unicode="&#x162;" horiz-adv-x="1001" 
d="M12 1122v134h978v-134h-447l35 36v-1158h-156v1158l35 -36h-445zM271 -367l27 66q74 -39 133 -44.5t94.5 14.5t38.5 55t-26.5 61t-75.5 44t-95 29l71 187l89 -8l-67 -175l-36 57q90 -20 151 -49t91 -67t26 -86q-4 -57 -48.5 -91.5t-110.5 -45t-136 2.5t-126 50z" />
    <glyph glyph-name="uni0163" unicode="&#x163;" horiz-adv-x="752" 
d="M496 -24q-78 0 -140 30t-98 90t-36 150v976h154v-972q0 -148 138 -148q41 0 79.5 9t86.5 27l22 -112q-51 -22 -101.5 -36t-104.5 -14zM68 848v108h610v-108h-610zM246 -353l27 66q74 -39 133 -44.5t94.5 14.5t38.5 55t-26.5 61t-75.5 44t-95 29l71 187l89 -8l-67 -175
l-36 57q90 -20 151 -49t91 -67t26 -86q-4 -57 -48.5 -91.5t-110.5 -45t-136 2.5t-126 50z" />
    <glyph glyph-name="Tcaron" unicode="&#x164;" horiz-adv-x="1001" 
d="M12 1122v134h978v-134h-447l35 36v-1158h-156v1158l35 -36h-445zM504 1407l-317 310l94 74l250 -268h-54l252 268l93 -74z" />
    <glyph glyph-name="tcaron" unicode="&#x165;" horiz-adv-x="752" 
d="M496 -24q-78 0 -140 30t-98 90t-36 150v976h154v-972q0 -148 138 -148q41 0 79.5 9t86.5 27l22 -112q-51 -22 -101.5 -36t-104.5 -14zM68 848v108h610v-108h-610zM372 1294l-317 310l94 74l250 -268h-54l252 268l93 -74z" />
    <glyph glyph-name="Tbar" unicode="&#x166;" horiz-adv-x="1001" 
d="M12 1122v134h978v-134h-447l35 36v-1158h-156v1158l35 -36h-445zM162.817 548.271v126.811h671.533v-126.811h-671.533z" />
    <glyph glyph-name="tbar" unicode="&#x167;" horiz-adv-x="752" 
d="M496 -24q-78 0 -140 30t-98 90t-36 150v976h154v-972q0 -148 138 -148q41 0 79.5 9t86.5 27l22 -112q-51 -22 -101.5 -36t-104.5 -14zM68 848v108h610v-108h-610zM81.5654 544.433v116.534h562.361v-116.534h-562.361z" />
    <glyph glyph-name="Umacron" unicode="&#x16a;" horiz-adv-x="1306" 
d="M174 1256h156v-802q0 -177 89 -255.5t233 -78.5q143 0 231.5 78.5t88.5 255.5v802h156v-802q0 -158 -58.5 -264.5t-165.5 -160t-252 -53.5t-252.5 53.5t-166.5 160t-59 264.5v802zM341 1598h625v-130h-625v130z" />
    <glyph glyph-name="umacron" unicode="&#x16b;" horiz-adv-x="1211" 
d="M852 958h156v-958h-156v958zM174 958h156v-596q0 -120 58.5 -182t167.5 -62q90 0 156.5 48t103 132.5t36.5 193.5h58q0 -161 -46.5 -275t-131 -174.5t-198.5 -60.5q-108 0 -189 40t-126 121.5t-45 206.5v608zM312 1298h625v-130h-625v130z" />
    <glyph glyph-name="Uring" unicode="&#x16e;" horiz-adv-x="1306" 
d="M174 1256h156v-802q0 -177 89 -255.5t233 -78.5q143 0 231.5 78.5t88.5 255.5v802h156v-802q0 -158 -58.5 -264.5t-165.5 -160t-252 -53.5t-252.5 53.5t-166.5 160t-59 264.5v802zM653 1368q-55 0 -100.5 27t-72.5 72.5t-27 100.5t27 100.5t72.5 73t100.5 27.5
t100.5 -27.5t73 -73t27.5 -100.5t-27.5 -100.5t-73 -72.5t-100.5 -27zM653 1480q38 0 63.5 25.5t25.5 62.5q0 38 -25.5 63.5t-63.5 25.5q-37 0 -62.5 -25.5t-25.5 -63.5q0 -37 25.5 -62.5t62.5 -25.5z" />
    <glyph glyph-name="uring" unicode="&#x16f;" horiz-adv-x="1211" 
d="M852 958h156v-958h-156v958zM174 958h156v-596q0 -120 58.5 -182t167.5 -62q90 0 156.5 48t103 132.5t36.5 193.5h58q0 -161 -46.5 -275t-131 -174.5t-198.5 -60.5q-108 0 -189 40t-126 121.5t-45 206.5v608zM624 1068q-55 0 -100.5 27t-72.5 72.5t-27 100.5t27 100.5
t72.5 73t100.5 27.5t100.5 -27.5t73 -73t27.5 -100.5t-27.5 -100.5t-73 -72.5t-100.5 -27zM624 1180q38 0 63.5 25.5t25.5 62.5q0 38 -25.5 63.5t-63.5 25.5q-37 0 -62.5 -25.5t-25.5 -63.5q0 -37 25.5 -62.5t62.5 -25.5z" />
    <glyph glyph-name="Uhungarumlaut" unicode="&#x170;" horiz-adv-x="1306" 
d="M174 1256h156v-802q0 -177 89 -255.5t233 -78.5q143 0 231.5 78.5t88.5 255.5v802h156v-802q0 -158 -58.5 -264.5t-165.5 -160t-252 -53.5t-252.5 53.5t-166.5 160t-59 264.5v802zM797 1393l-85 13l28 326l121 -22zM562 1401l-87 10l16 328l123 -16z" />
    <glyph glyph-name="uhungarumlaut" unicode="&#x171;" horiz-adv-x="1211" 
d="M852 958h156v-958h-156v958zM174 958h156v-596q0 -120 58.5 -182t167.5 -62q90 0 156.5 48t103 132.5t36.5 193.5h58q0 -161 -46.5 -275t-131 -174.5t-198.5 -60.5q-108 0 -189 40t-126 121.5t-45 206.5v608zM768 1093l-85 13l28 326l121 -22zM533 1101l-87 10l16 328
l123 -16z" />
    <glyph glyph-name="Uogonek" unicode="&#x172;" horiz-adv-x="1306" 
d="M174 1256h156v-802q0 -177 89 -255.5t233 -78.5q143 0 231.5 78.5t88.5 255.5v802h156v-802q0 -158 -58.5 -264.5t-165.5 -160t-252 -53.5t-252.5 53.5t-166.5 160t-59 264.5v802zM887 -332q-62 -35 -130.5 -54t-131.5 -19q-99 0 -158.5 45t-59.5 124t63.5 153t190.5 122
l101 -39q-112 -46 -177 -96.5t-65 -109.5q0 -45 36.5 -66t86.5 -21q46 0 95.5 15.5t110.5 48.5z" />
    <glyph glyph-name="uogonek" unicode="&#x173;" horiz-adv-x="1211" 
d="M852 958h156v-958h-156v958zM174 958h156v-596q0 -120 58.5 -182t167.5 -62q90 0 156.5 48t103 132.5t36.5 193.5h58q0 -161 -46.5 -275t-131 -174.5t-198.5 -60.5q-108 0 -189 40t-126 121.5t-45 206.5v608zM1133 -332q-62 -35 -130.5 -54t-131.5 -19q-99 0 -158.5 45
t-59.5 124t63.5 153t190.5 122l101 -39q-112 -46 -177 -96.5t-65 -109.5q0 -45 36.5 -66t86.5 -21q46 0 95.5 15.5t110.5 48.5z" />
    <glyph glyph-name="Wcircumflex" unicode="&#x174;" horiz-adv-x="1788" 
d="M28 1256h176l326 -1118h-46l334 988h106l330 -980h-44l374 1110h174l-444 -1256h-164l-290 852h30l-300 -852h-164zM663 1398l-94 74l317 311l318 -311l-93 -74l-252 255h54z" />
    <glyph glyph-name="wcircumflex" unicode="&#x175;" horiz-adv-x="1449" 
d="M36 956h162l244 -798h-20l238 752h130l236 -754h-18l244 800h156l-314 -956h-152l-232 706h24l-230 -706h-152zM500 1082l-94 74l317 311l318 -311l-93 -74l-252 255h54z" />
    <glyph glyph-name="Ycircumflex" unicode="&#x176;" horiz-adv-x="1097" 
d="M18 1256h188l360 -610h-40l366 610h186l-454 -740v-516h-158v516zM325 1382l-94 74l317 311l318 -311l-93 -74l-252 255h54z" />
    <glyph glyph-name="ycircumflex" unicode="&#x177;" horiz-adv-x="931" 
d="M44 956h174l312 -820h-36l242 820h160l-360 -1148q-45 -144 -120 -222t-192 -78q-63 0 -119.5 18t-116.5 52v144q53 -42 102.5 -60t103.5 -18q60 0 100.5 38t67.5 97.5t46 124.5l28 96zM242 1082l-94 74l317 311l318 -311l-93 -74l-252 255h54z" />
    <glyph glyph-name="Ydieresis" unicode="&#x178;" horiz-adv-x="1097" 
d="M18 1256h188l360 -610h-40l366 610h186l-454 -740v-516h-158v516zM715 1439q-43 0 -73.5 28.5t-30.5 70.5t30.5 72t73.5 30q45 0 75.5 -30t30.5 -72t-30.5 -70.5t-75.5 -28.5zM381 1439q-45 0 -74.5 28.5t-29.5 68.5q0 44 29.5 73t74.5 29t75.5 -29t30.5 -73
q0 -40 -30.5 -68.5t-75.5 -28.5z" />
    <glyph glyph-name="Zacute" unicode="&#x179;" horiz-adv-x="1183" 
d="M146 0v140l770 1026v-58l-770 6v142h922v-140l-746 -994l-12 26l758 -6v-142h-922zM566 1419l-78 63l336 351l109 -89z" />
    <glyph glyph-name="zacute" unicode="&#x17a;" horiz-adv-x="949" 
d="M106 0v126l564 704h-564v126h740v-126l-556 -704h556v-126h-740zM416 1119l-78 63l336 351l109 -89z" />
    <glyph glyph-name="Zdotaccent" unicode="&#x17b;" horiz-adv-x="1183" 
d="M146 0v140l770 1026v-58l-770 6v142h922v-140l-746 -994l-12 26l758 -6v-142h-922zM523.868 1554.25q0 46.1133 32.3779 79.4727q32.3779 33.3584 81.4346 33.3584t83.3965 -33.3584q34.3408 -33.3594 34.3408 -79.4727t-34.3408 -77.5098
q-34.3398 -31.3965 -83.3965 -31.3965t-81.4346 31.8867t-32.3779 77.0195z" />
    <glyph glyph-name="zdotaccent" unicode="&#x17c;" horiz-adv-x="949" 
d="M106 0v126l564 704h-564v126h740v-126l-556 -704h556v-126h-740zM373.868 1254.25q0 46.1133 32.3779 79.4727q32.3779 33.3584 81.4346 33.3584t83.3965 -33.3584q34.3408 -33.3594 34.3408 -79.4727t-34.3408 -77.5098q-34.3398 -31.3965 -83.3965 -31.3965
t-81.4346 31.8867t-32.3779 77.0195z" />
    <glyph glyph-name="Zcaron" unicode="&#x17d;" horiz-adv-x="1183" 
d="M146 0v140l770 1026v-58l-770 6v142h922v-140l-746 -994l-12 26l758 -6v-142h-922zM628 1407l-317 310l94 74l250 -268h-54l252 268l93 -74z" />
    <glyph glyph-name="zcaron" unicode="&#x17e;" horiz-adv-x="949" 
d="M106 0v126l564 704h-564v126h740v-126l-556 -704h556v-126h-740zM478 1107l-317 310l94 74l250 -268h-54l252 268l93 -74z" />
    <glyph glyph-name="florin" unicode="&#x192;" horiz-adv-x="666" 
d="M14 848l7 108h510l-7 -108h-510zM-172 -403l38 124q29 -11 58 -17t56 -6q32 0 65 12t56.5 45t28.5 95l87 1254q7 95 47.5 155.5t104.5 89.5t140 29q40 0 82.5 -6t83.5 -18l-39 -124q-29 12 -58 18t-56 6q-32 0 -64.5 -12t-56 -45t-28.5 -95l-87 -1254q-7 -95 -48 -156
t-104.5 -90t-140.5 -29q-40 0 -82 6t-83 18z" />
    <glyph glyph-name="uni0218" unicode="&#x218;" horiz-adv-x="1209" 
d="M604 -24q-126 0 -231 45.5t-169 134.5t-66 220h152q0 -88 43 -144.5t114 -84t155 -27.5q91 0 158 29t103.5 76.5t36.5 104.5q0 80 -49 129.5t-145 80.5l-222 78q-156 56 -236 128t-80 202q0 146 112.5 238t319.5 92q192 0 300 -88.5t124 -237.5h-154q-15 87 -81.5 135.5
t-188.5 48.5q-124 0 -193 -55t-69 -139q0 -69 43.5 -109.5t136.5 -72.5l260 -90q135 -45 213.5 -126t78.5 -210q0 -100 -53.5 -181t-157.5 -129t-255 -48zM561 -439l-89 45q53 26 89 57t49 77q-37 2 -61 24t-21 58q2 35 28.5 58.5t65.5 23.5q46 0 76 -34t27 -90
q-2 -56 -43 -118t-121 -101z" />
    <glyph glyph-name="uni0219" unicode="&#x219;" horiz-adv-x="1051" 
d="M546 -24q-139 0 -232 39.5t-141 109t-51 159.5h150q5 -91 73.5 -136.5t186.5 -45.5q62 0 114 20t83 55t31 79q0 56 -41 88t-131 56l-186 60q-121 38 -185.5 104.5t-64.5 159.5q0 116 102 186t268 70q176 0 273 -72t101 -180h-154q-9 63 -64 95.5t-156 32.5
q-97 0 -151.5 -43.5t-54.5 -96.5q0 -99 170 -146l190 -64q123 -37 188.5 -97t65.5 -153q0 -72 -47 -136t-133 -104t-204 -40zM488 -438l-89 45q53 26 89 57t49 77q-37 2 -61 24t-21 58q2 35 28.5 58.5t65.5 23.5q46 0 76 -34t27 -90q-2 -56 -43 -118t-121 -101z" />
    <glyph glyph-name="uni021A" unicode="&#x21a;" horiz-adv-x="1001" 
d="M12 1122v134h978v-134h-447l35 36v-1158h-156v1158l35 -36h-445zM419 -450l-89 45q53 26 89 57t49 77q-37 2 -61 24t-21 58q2 35 28.5 58.5t65.5 23.5q46 0 76 -34t27 -90q-2 -56 -43 -118t-121 -101z" />
    <glyph glyph-name="uni021B" unicode="&#x21b;" horiz-adv-x="752" 
d="M496 -24q-78 0 -140 30t-98 90t-36 150v976h154v-972q0 -148 138 -148q41 0 79.5 9t86.5 27l22 -112q-51 -22 -101.5 -36t-104.5 -14zM68 848v108h610v-108h-610zM394 -436l-89 45q53 26 89 57t49 77q-37 2 -61 24t-21 58q2 35 28.5 58.5t65.5 23.5q46 0 76 -34t27 -90
q-2 -56 -43 -118t-121 -101z" />
    <glyph glyph-name="uni0237" unicode="&#x237;" horiz-adv-x="627" 
d="M96 -492q-69 0 -134 18.5t-134 55.5l8 136q59 -33 115.5 -53.5t116.5 -20.5q84 0 130 54t46 168v1094h154v-1096q0 -190 -83.5 -273t-218.5 -83z" />
    <glyph glyph-name="apostrophe" unicode="&#x2bc;" horiz-adv-x="366" 
d="M190 840l-118 58q57 29 96.5 64t51.5 86q-43 5 -73.5 31t-30.5 69q0 42 31.5 72t80.5 30q62 0 100 -45t38 -107q0 -73 -44.5 -143.5t-131.5 -114.5z" />
    <glyph glyph-name="circumflex" unicode="&#x2c6;" horiz-adv-x="838" 
d="M196 1093l-94 74l317 311l318 -311l-93 -74l-252 255h54z" />
    <glyph glyph-name="caron" unicode="&#x2c7;" horiz-adv-x="838" 
d="M419 1107l-317 310l94 74l250 -268h-54l252 268l93 -74z" />
    <glyph glyph-name="breve" unicode="&#x2d8;" horiz-adv-x="759" 
d="M380 1152q-127 0 -202.5 72t-75.5 183h130q0 -70 40.5 -109t107.5 -39q68 0 108 39t40 109h130q0 -111 -75.5 -183t-202.5 -72z" />
    <glyph glyph-name="dotaccent" unicode="&#x2d9;" horiz-adv-x="434" 
d="M101.868 1256.25q0 46.1133 32.3779 79.4727q32.3779 33.3584 81.4346 33.3584t83.3965 -33.3584q34.3408 -33.3594 34.3408 -79.4727t-34.3408 -77.5098q-34.3398 -31.3965 -83.3965 -31.3965t-81.4346 31.8867t-32.3779 77.0195z" />
    <glyph glyph-name="ring" unicode="&#x2da;" horiz-adv-x="604" 
d="M302 1318q-55 0 -100.5 27t-72.5 72.5t-27 100.5t27 100.5t72.5 73t100.5 27.5t100.5 -27.5t73 -73t27.5 -100.5t-27.5 -100.5t-73 -72.5t-100.5 -27zM302 1430q38 0 63.5 25.5t25.5 62.5q0 38 -25.5 63.5t-63.5 25.5q-37 0 -62.5 -25.5t-25.5 -63.5q0 -37 25.5 -62.5
t62.5 -25.5z" />
    <glyph glyph-name="ogonek" unicode="&#x2db;" horiz-adv-x="683" 
d="M582 -360q-62 -35 -130.5 -54t-131.5 -19q-99 0 -158.5 45t-59.5 124t63.5 153t190.5 122l101 -39q-112 -46 -177 -96.5t-65 -109.5q0 -45 36.5 -66t86.5 -21q46 0 95.5 15.5t110.5 48.5z" />
    <glyph glyph-name="tilde" unicode="&#x2dc;" horiz-adv-x="833" 
d="M166 1118l-64 41q24 100 70.5 153t107.5 53q26 0 54.5 -9.5t91.5 -42.5q62 -32 86 -42t46 -10q29 0 57 25t49 79l68 -46q-15 -63 -41.5 -108t-60 -69t-68.5 -24q-30 0 -63.5 12.5t-98.5 45.5q-55 29 -77 37.5t-43 8.5q-31 0 -59.5 -22.5t-54.5 -81.5z" />
    <glyph glyph-name="hungarumlaut" unicode="&#x2dd;" horiz-adv-x="589" 
d="M424 1093l-85 13l28 326l121 -22zM189 1101l-87 10l16 328l123 -16z" />
    <glyph glyph-name="gravecomb" unicode="&#x300;" horiz-adv-x="0" 
d="M465 1125l-367 325l109 89l336 -351z" />
    <glyph glyph-name="acutecomb" unicode="&#x301;" horiz-adv-x="0" 
d="M180 1125l-78 63l336 351l109 -89z" />
    <glyph glyph-name="uni0302" unicode="&#x302;" horiz-adv-x="0" 
d="M196 1093l-94 74l317 311l318 -311l-93 -74l-252 255h54z" />
    <glyph glyph-name="tildecomb" unicode="&#x303;" horiz-adv-x="0" 
d="M110 1118l-64 41q24 100 70.5 153t107.5 53q26 0 54.5 -9.5t91.5 -42.5q62 -32 86 -42t46 -10q29 0 57 25t49 79l68 -46q-15 -63 -41.5 -108t-60 -69t-68.5 -24q-30 0 -63.5 12.5t-98.5 45.5q-55 29 -77 37.5t-43 8.5q-31 0 -59.5 -22.5t-54.5 -81.5z" />
    <glyph glyph-name="uni0304" unicode="&#x304;" horiz-adv-x="0" 
d="M283 1298h625v-130h-625v130z" />
    <glyph glyph-name="uni0306" unicode="&#x306;" horiz-adv-x="0" 
d="M380 1152q-127 0 -202.5 72t-75.5 183h130q0 -70 40.5 -109t107.5 -39q68 0 108 39t40 109h130q0 -111 -75.5 -183t-202.5 -72z" />
    <glyph glyph-name="uni0307" unicode="&#x307;" horiz-adv-x="0" 
d="M101.868 1256.25q0 46.1133 32.3779 79.4727q32.3779 33.3584 81.4346 33.3584t83.3965 -33.3584q34.3408 -33.3594 34.3408 -79.4727t-34.3408 -77.5098q-34.3398 -31.3965 -83.3965 -31.3965t-81.4346 31.8867t-32.3779 77.0195z" />
    <glyph glyph-name="uni0308" unicode="&#x308;" horiz-adv-x="0" 
d="M540 1139q-43 0 -73.5 28.5t-30.5 70.5t30.5 72t73.5 30q45 0 75.5 -30t30.5 -72t-30.5 -70.5t-75.5 -28.5zM206 1139q-45 0 -74.5 28.5t-29.5 68.5q0 44 29.5 73t74.5 29t75.5 -29t30.5 -73q0 -40 -30.5 -68.5t-75.5 -28.5z" />
    <glyph glyph-name="uni030A" unicode="&#x30a;" horiz-adv-x="0" 
d="M302 1318q-55 0 -100.5 27t-72.5 72.5t-27 100.5t27 100.5t72.5 73t100.5 27.5t100.5 -27.5t73 -73t27.5 -100.5t-27.5 -100.5t-73 -72.5t-100.5 -27zM302 1430q38 0 63.5 25.5t25.5 62.5q0 38 -25.5 63.5t-63.5 25.5q-37 0 -62.5 -25.5t-25.5 -63.5q0 -37 25.5 -62.5
t62.5 -25.5z" />
    <glyph glyph-name="uni030B" unicode="&#x30b;" horiz-adv-x="0" 
d="M424 1093l-85 13l28 326l121 -22zM189 1101l-87 10l16 328l123 -16z" />
    <glyph glyph-name="uni030C" unicode="&#x30c;" horiz-adv-x="0" 
d="M419 1107l-317 310l94 74l250 -268h-54l252 268l93 -74z" />
    <glyph glyph-name="uni0312" unicode="&#x312;" horiz-adv-x="0" 
d="M267 1381l89 -45q-53 -26 -89 -57t-49 -77q37 -2 61 -24t21 -58q-2 -35 -28.5 -58.5t-65.5 -23.5q-46 0 -76 34t-27 90q2 56 43 118t121 101z" />
    <glyph glyph-name="uni0326" unicode="&#x326;" horiz-adv-x="0" 
d="M191 -439l-89 45q53 26 89 57t49 77q-37 2 -61 24t-21 58q2 35 28.5 58.5t65.5 23.5q46 0 76 -34t27 -90q-2 -56 -43 -118t-121 -101z" />
    <glyph glyph-name="uni0327" unicode="&#x327;" horiz-adv-x="0" 
d="M102 -356l27 66q74 -39 133 -44.5t94.5 14.5t38.5 55t-26.5 61t-75.5 44t-95 29l71 187l89 -8l-67 -175l-36 57q90 -20 151 -49t91 -67t26 -86q-4 -57 -48.5 -91.5t-110.5 -45t-136 2.5t-126 50z" />
    <glyph glyph-name="uni0328" unicode="&#x328;" horiz-adv-x="0" 
d="M582 -360q-62 -35 -130.5 -54t-131.5 -19q-99 0 -158.5 45t-59.5 124t63.5 153t190.5 122l101 -39q-112 -46 -177 -96.5t-65 -109.5q0 -45 36.5 -66t86.5 -21q46 0 95.5 15.5t110.5 48.5z" />
    <glyph glyph-name="uni0394" unicode="&#x394;" horiz-adv-x="1149" 
d="M52 0l432 1256h190l422 -1256h-164l-356 1066l-360 -1066h-164zM149 0v135h846v-135h-846z" />
    <glyph glyph-name="uni03A9" unicode="&#x3a9;" horiz-adv-x="1291" 
d="M546 29q-79 0 -158 37t-143.5 111.5t-103.5 186.5t-39 262q0 220 71 364.5t194 216t279 71.5t279 -72t194 -217t71 -363q0 -151 -39 -263.5t-104 -186.5t-144 -110.5t-159 -36.5v81q69 0 134 61.5t107.5 177.5t42.5 279q0 245 -102.5 377.5t-279.5 132.5
q-175 0 -278.5 -133t-103.5 -379q0 -162 42.5 -277.5t107.5 -177t132 -61.5v-81zM102 -1v111h444v-111h-444zM744 -1v111h445v-111h-445z" />
    <glyph glyph-name="uni03BC" unicode="&#x3bc;" horiz-adv-x="1211" 
d="M852 958h156v-958h-156v958zM174 958h156v-596q0 -120 58.5 -182t167.5 -62q90 0 156.5 48t103 132.5t36.5 193.5h58q0 -161 -46.5 -275t-131 -174.5t-198.5 -60.5q-108 0 -189 40t-126 121.5t-45 206.5v608zM174 -406v1364h156v-1364h-156z" />
    <glyph glyph-name="pi" unicode="&#x3c0;" horiz-adv-x="1229" 
d="M1088 -13q-99 0 -174 44t-117 131t-42 216v579h154v-579q0 -136 63 -194.5t155 -58.5zM308 0v956h156v-956h-156zM57 823v135h1134v-135h-1134z" />
    <glyph glyph-name="Wgrave" unicode="&#x1e80;" horiz-adv-x="1788" 
d="M28 1256h176l326 -1118h-46l334 988h106l330 -980h-44l374 1110h174l-444 -1256h-164l-290 852h30l-300 -852h-164zM1035 1441l-367 325l109 89l336 -351z" />
    <glyph glyph-name="wgrave" unicode="&#x1e81;" horiz-adv-x="1449" 
d="M36 956h162l244 -798h-20l238 752h130l236 -754h-18l244 800h156l-314 -956h-152l-232 706h24l-230 -706h-152zM872 1125l-367 325l109 89l336 -351z" />
    <glyph glyph-name="Wacute" unicode="&#x1e82;" horiz-adv-x="1788" 
d="M28 1256h176l326 -1118h-46l334 988h106l330 -980h-44l374 1110h174l-444 -1256h-164l-290 852h30l-300 -852h-164zM828 1435l-78 63l336 351l109 -89z" />
    <glyph glyph-name="wacute" unicode="&#x1e83;" horiz-adv-x="1449" 
d="M36 956h162l244 -798h-20l238 752h130l236 -754h-18l244 800h156l-314 -956h-152l-232 706h24l-230 -706h-152zM665 1119l-78 63l336 351l109 -89z" />
    <glyph glyph-name="Wdieresis" unicode="&#x1e84;" horiz-adv-x="1788" 
d="M28 1256h176l326 -1118h-46l334 988h106l330 -980h-44l374 1110h174l-444 -1256h-164l-290 852h30l-300 -852h-164zM1053 1455q-43 0 -73.5 28.5t-30.5 70.5t30.5 72t73.5 30q45 0 75.5 -30t30.5 -72t-30.5 -70.5t-75.5 -28.5zM719 1455q-45 0 -74.5 28.5t-29.5 68.5
q0 44 29.5 73t74.5 29t75.5 -29t30.5 -73q0 -40 -30.5 -68.5t-75.5 -28.5z" />
    <glyph glyph-name="wdieresis" unicode="&#x1e85;" horiz-adv-x="1449" 
d="M36 956h162l244 -798h-20l238 752h130l236 -754h-18l244 800h156l-314 -956h-152l-232 706h24l-230 -706h-152zM890 1139q-43 0 -73.5 28.5t-30.5 70.5t30.5 72t73.5 30q45 0 75.5 -30t30.5 -72t-30.5 -70.5t-75.5 -28.5zM556 1139q-45 0 -74.5 28.5t-29.5 68.5
q0 44 29.5 73t74.5 29t75.5 -29t30.5 -73q0 -40 -30.5 -68.5t-75.5 -28.5z" />
    <glyph glyph-name="uni1E9E" unicode="&#x1e9e;" horiz-adv-x="1227" 
d="M968 1076q0 -75 -28.5 -124.5t-65.5 -85t-65.5 -67t-28.5 -70.5q0 -40 33 -71t81.5 -61.5t97 -69.5t81.5 -95.5t33 -140.5q0 -93 -45 -164t-119.5 -111t-165.5 -40q-57 0 -129 16.5t-128 44.5l3 134q56 -40 117 -60t116 -20q65 0 105.5 25.5t59 66.5t18.5 87
q0 68 -31.5 115.5t-78 83.5t-93 69.5t-78 73.5t-31.5 95q0 54 29.5 93t68.5 74.5t68.5 78t29.5 104.5q0 78 -58.5 131t-168.5 53q-120 0 -178.5 -74t-58.5 -244v-923h-156v926q0 139 46 237t135.5 150t222.5 52q120 0 200.5 -39t121 -104.5t40.5 -145.5z" />
    <glyph glyph-name="Ygrave" unicode="&#x1ef2;" horiz-adv-x="1097" 
d="M18 1256h188l360 -610h-40l366 610h186l-454 -740v-516h-158v516zM697 1425l-367 325l109 89l336 -351z" />
    <glyph glyph-name="ygrave" unicode="&#x1ef3;" horiz-adv-x="931" 
d="M44 956h174l312 -820h-36l242 820h160l-360 -1148q-45 -144 -120 -222t-192 -78q-63 0 -119.5 18t-116.5 52v144q53 -42 102.5 -60t103.5 -18q60 0 100.5 38t67.5 97.5t46 124.5l28 96zM614 1125l-367 325l109 89l336 -351z" />
    <glyph glyph-name="endash" unicode="&#x2013;" horiz-adv-x="945" 
d="M110 514v136h726v-136h-726z" />
    <glyph glyph-name="emdash" unicode="&#x2014;" horiz-adv-x="1449" 
d="M110 514v136h1232v-136h-1232z" />
    <glyph glyph-name="quoteleft" unicode="&#x2018;" horiz-adv-x="425" 
d="M210 838q-40 0 -71 21t-49 57t-18 80q0 72 47.5 141.5t134.5 114.5l112 -60q-57 -28 -96.5 -65t-53.5 -87q47 -4 76.5 -28.5t29.5 -67.5t-30.5 -74.5t-81.5 -31.5z" />
    <glyph glyph-name="quoteright" unicode="&#x2019;" horiz-adv-x="425" 
d="M142 838l-112 60q57 29 96.5 65.5t51.5 84.5q-45 5 -75.5 31t-30.5 69q0 44 33 74t83 30q42 0 72 -21.5t46 -57t16 -79.5q0 -72 -47 -140.5t-133 -115.5z" />
    <glyph glyph-name="quotesinglbase" unicode="&#x201a;" horiz-adv-x="469" 
d="M190 -218l-118 58q57 29 96.5 64t51.5 86q-43 5 -73.5 31t-30.5 69q0 42 31.5 72t80.5 30q62 0 100 -45t38 -107q0 -73 -44.5 -143.5t-131.5 -114.5z" />
    <glyph glyph-name="quotedblleft" unicode="&#x201c;" horiz-adv-x="803" 
d="M544 838q-40 0 -71 21t-49 57t-18 80q0 72 47.5 141.5t134.5 114.5l112 -60q-57 -28 -96.5 -65t-53.5 -87q47 -4 76.5 -28.5t29.5 -67.5t-30.5 -74.5t-81.5 -31.5zM210 838q-40 0 -71 21t-49 57t-18 80q0 72 47.5 141.5t134.5 114.5l112 -60q-57 -28 -96.5 -65t-53.5 -87
q47 -4 76.5 -28.5t29.5 -67.5t-30.5 -74.5t-81.5 -31.5z" />
    <glyph glyph-name="quotedblright" unicode="&#x201d;" horiz-adv-x="794" 
d="M511 838l-112 60q57 29 96.5 65.5t51.5 84.5q-45 5 -75.5 31t-30.5 69q0 44 33 74t83 30q42 0 72 -21.5t46 -57t16 -79.5q0 -72 -47 -140.5t-133 -115.5zM184 838l-112 60q57 29 96.5 65.5t51.5 84.5q-45 5 -75.5 31t-30.5 69q0 44 33 74t83 30q42 0 72 -21.5t46 -57
t16 -79.5q0 -72 -47 -140.5t-133 -115.5z" />
    <glyph glyph-name="quotedblbase" unicode="&#x201e;" horiz-adv-x="872" 
d="M593 -218l-118 58q57 29 96.5 64t51.5 86q-43 5 -73.5 31t-30.5 69q0 42 31.5 72t80.5 30q62 0 100 -45t38 -107q0 -73 -44.5 -143.5t-131.5 -114.5zM190 -218l-118 58q57 29 96.5 64t51.5 86q-43 5 -73.5 31t-30.5 69q0 42 31.5 72t80.5 30q62 0 100 -45t38 -107
q0 -73 -44.5 -143.5t-131.5 -114.5z" />
    <glyph glyph-name="dagger" unicode="&#x2020;" horiz-adv-x="1000" 
d="M429 -252l-19 1508h180l-22 -1508h-139zM83 781v100l417 15l417 -15v-100l-417 -16z" />
    <glyph glyph-name="daggerdbl" unicode="&#x2021;" horiz-adv-x="1000" 
d="M429 -252l-19 1508h180l-22 -1508h-139zM83 781v100l417 15l417 -15v-100l-417 -16zM83 455v99l417 15l417 -15v-99l-417 -17z" />
    <glyph glyph-name="bullet" unicode="&#x2022;" horiz-adv-x="552" 
d="M60.376 527.698q0 85.6777 60.1572 147.657q60.1572 61.9805 151.304 61.9805t154.949 -61.9805q63.8037 -61.9795 63.8037 -147.657q0 -85.6787 -63.8037 -144.013q-63.8027 -58.334 -154.949 -58.334t-151.304 59.2461q-60.1572 59.2451 -60.1572 143.101z" />
    <glyph glyph-name="ellipsis" unicode="&#x2026;" horiz-adv-x="1084" 
d="M60 93q0 47 33 81t83 34t85 -34t35 -81t-35 -79t-85 -32t-83 32.5t-33 78.5zM433 93q0 47 33 81t83 34t85 -34t35 -81t-35 -79t-85 -32t-83 32.5t-33 78.5zM787 93q0 47 33 81t83 34t85 -34t35 -81t-35 -79t-85 -32t-83 32.5t-33 78.5z" />
    <glyph glyph-name="perthousand" unicode="&#x2030;" horiz-adv-x="2334" 
d="M398 576q-133 0 -214.5 98t-81.5 295t81.5 294.5t214.5 97.5t215 -97.5t82 -294.5t-82 -295t-215 -98zM398 662q98 0 148.5 80.5t50.5 226.5t-50.5 226t-148.5 80q-97 0 -148 -80t-51 -226t51 -226.5t148 -80.5zM1240 -24q-133 0 -214.5 98t-81.5 295t81.5 294.5
t214.5 97.5t215 -97.5t82 -294.5t-82 -295t-215 -98zM1240 62q98 0 148.5 80.5t50.5 226.5t-50.5 226t-148.5 80q-97 0 -148 -80t-51 -226t51 -226.5t148 -80.5zM1936 -24q-133 0 -214.5 98t-81.5 295t81.5 294.5t214.5 97.5t215 -97.5t82 -294.5t-82 -295t-215 -98z
M1936 62q98 0 148.5 80.5t50.5 226.5t-50.5 226t-148.5 80q-97 0 -148 -80t-51 -226t51 -226.5t148 -80.5zM284.292 -16.4229l953.229 1365.35h122.52l-956.292 -1365.35h-119.457z" />
    <glyph glyph-name="guilsinglleft" unicode="&#x2039;" horiz-adv-x="730" 
d="M249 502l380 382l-118 75l-409 -429l409 -429l118 75l-380 382v-56z" />
    <glyph glyph-name="guilsinglright" unicode="&#x203a;" horiz-adv-x="730" 
d="M219 101l-117 75l379 382v-56l-379 382l117 75l410 -429z" />
    <glyph glyph-name="fraction" unicode="&#x2044;" horiz-adv-x="546" 
d="M-266.708 -16.4229l953.229 1365.35h122.52l-956.292 -1365.35h-119.457z" />
    <glyph glyph-name="uni2070" unicode="&#x2070;" horiz-adv-x="818" 
d="M409.25 465q-92.5 0 -161.562 45t-107.5 135.625t-38.4375 226.875t38.4375 226.562t107.5 135t161.562 44.6875q91.875 0 161.25 -44.6875t107.812 -135t38.4375 -226.562t-38.4375 -226.875t-107.812 -135.625t-161.25 -45zM409.25 555q101.25 0 153.75 82.8125
t52.5 234.688t-52.5 234.688t-153.75 82.8125q-100 0 -153.125 -82.8125t-53.125 -234.688t53.125 -234.688t153.125 -82.8125z" />
    <glyph glyph-name="uni2074" unicode="&#x2074;" horiz-adv-x="711" 
d="M448.716 1274.48h87.9531v-503.621h131.327v-79.5186h-131.327v-184.34h-92.7725v184.34h-391.57v72.29zM447.512 1126.29l-283.137 -362.655h283.137v362.655z" />
    <glyph glyph-name="uni2075" unicode="&#x2075;" horiz-adv-x="777" 
d="M391.764 484.542q-71.6885 0 -130.725 25.9043q-59.0371 25.9033 -94.5801 76.2051q-35.542 50.3018 -36.1445 123.194h93.9766q0 -68.6758 48.4951 -103.615q48.4941 -34.9404 118.978 -34.9404q81.3262 0 128.013 49.6992q46.6875 49.6992 46.6875 122.592
q0 145.785 -187.954 145.785h-202.412l32.5312 366.27h419.281v-85.543h-343.377l19.2773 32.5303l-25.3018 -263.858l-12.0479 10.8428q28.916 6.62695 65.6631 9.33789t65.6631 2.71094q122.894 0 194.581 -54.8203q71.6875 -54.8193 71.6875 -163.255
q0 -73.4951 -33.1328 -132.23t-94.2783 -92.7725q-61.1455 -34.0361 -144.881 -34.0361z" />
    <glyph glyph-name="uni2076" unicode="&#x2076;" horiz-adv-x="776" 
d="M403.655 493.542q-90.9648 0 -158.737 50.001q-67.7715 50 -105.121 135.845q-37.3506 85.8447 -37.3506 193.677q0 127.11 37.9521 217.774q37.9531 90.6631 108.436 138.856t168.074 48.1934q67.4707 0 118.978 -25.6025t82.5312 -71.3867
q31.0244 -45.7832 37.0479 -106.628h-102.41q-9.03613 54.2178 -40.9648 86.1465q-31.9277 31.9277 -92.7715 31.9277q-103.616 0 -162.653 -89.459q-59.0361 -89.459 -59.0361 -244.28q0 -22.2891 1.2041 -51.5068q1.20508 -29.2168 4.81934 -54.5186
q5.42188 80.1221 37.0488 126.207t79.2178 65.3623t100.604 19.2773q68.6758 0 123.194 -30.1211t86.1455 -83.4346q31.627 -53.3145 31.627 -122.593q0 -69.8799 -32.5303 -122.592q-32.5303 -52.7109 -90.6641 -81.9287q-58.1328 -29.2168 -134.64 -29.2168z
M403.655 580.29q68.6748 0 113.856 40.3623q45.1816 40.3613 45.1816 109.037q0 70.4824 -45.1816 110.544q-45.1816 40.0605 -113.856 40.0605q-45.1816 0 -80.7236 -19.5791q-35.543 -19.5781 -56.3262 -53.6152q-20.7832 -34.0361 -20.7832 -77.4102
q0 -68.6758 45.1807 -109.037q45.1816 -40.3623 112.652 -40.3623z" />
    <glyph glyph-name="uni2077" unicode="&#x2077;" horiz-adv-x="599" 
d="M90.085 499l362.655 667.479h-404.824v89.1572h515.669v-86.748l-348.197 -669.888h-125.303z" />
    <glyph glyph-name="uni2078" unicode="&#x2078;" horiz-adv-x="828" 
d="M413.884 493.542q-89.1572 0 -157.532 28.3135q-68.374 28.3135 -107.229 77.7119q-38.8564 49.3984 -38.8564 112.05q0 57.2295 29.8203 98.1934q29.8193 40.9648 81.9287 62.9531q52.1084 21.9883 118.374 21.9883q17.4707 0 33.7363 -1.80762
q16.2646 -1.80762 34.9395 -6.62598v-27.7119q-60.2412 0 -105.423 -19.5781q-45.1807 -19.5791 -70.4824 -51.5068t-25.3018 -68.6758q0 -44.5781 27.1084 -75.6035q27.1094 -31.0244 73.7969 -46.9883q46.6865 -15.9639 105.121 -15.9639q97.5918 0 151.81 31.3252
q54.2168 31.3262 54.2168 81.9297q0 40.9639 -28.6143 67.4707q-28.6152 26.5059 -78.6152 44.5781l-208.437 79.5195q-37.9521 14.458 -76.8086 39.7598q-38.8555 25.3008 -65.3613 63.2529q-26.5068 37.9521 -26.5068 89.7607q0 58.4346 33.1328 103.615
q33.1328 45.1816 95.4834 70.7842q62.3496 25.6025 149.7 25.6025q80.1221 0 142.472 -27.4102q62.3506 -27.4092 97.8926 -74.6992q35.543 -47.29 35.543 -107.531q0 -46.9883 -23.7959 -87.0498q-23.7949 -40.0605 -69.8799 -64.458q-46.085 -24.3984 -113.556 -24.3984
q-16.2656 0 -31.0244 2.1084q-14.7598 2.1084 -32.832 7.53027v30.1211q48.7959 0 87.9531 16.5664t62.3506 46.085q23.1924 29.5186 23.1924 68.6758q0 37.3496 -22.5908 66.5664q-22.5898 29.2178 -62.6514 45.7842q-40.0605 16.5664 -93.0732 16.5664
q-51.2051 0 -91.8682 -15.9639t-64.1572 -42.7715q-23.4951 -26.8076 -23.4951 -59.3389q0 -40.3613 27.4102 -64.7598q27.4102 -24.3975 76.2061 -42.4697l208.437 -79.5195q83.1328 -31.3252 127.712 -74.0967t44.5791 -116.267q0 -59.6396 -36.1445 -105.725
q-36.1455 -46.085 -104.219 -71.9883q-68.0732 -25.9043 -164.46 -25.9043z" />
    <glyph glyph-name="uni2079" unicode="&#x2079;" horiz-adv-x="791" 
d="M394.173 493.542q-74.7002 0 -132.833 30.7236q-58.1328 30.7227 -91.5674 84.6396q-33.4346 53.916 -33.4346 123.194h97.5918q1.80762 -69.2783 43.6758 -110.544q41.8672 -41.2656 114.158 -41.2656q71.085 0 115.362 40.9639q44.2773 40.9648 65.0615 115.966
q20.7832 75.001 20.7832 176.81q0 23.4941 -1.20508 43.6748t-4.81934 45.4824q-7.83105 -65.0605 -37.3496 -108.134q-29.5186 -43.0723 -75.6035 -64.458t-103.917 -21.3857q-67.4707 0 -121.387 30.4219q-53.917 30.4219 -85.5439 83.7354
q-31.626 53.3145 -31.626 121.989q0 70.4834 32.2285 122.894q32.2295 52.4102 90.0615 81.0254q57.832 28.6143 134.339 28.6143q65.0615 0 120.183 -26.5059q55.1211 -26.5068 95.4834 -76.2061q40.3613 -49.6992 62.9521 -118.978q22.5908 -69.2773 22.5908 -155.424
q0 -124.7 -31.627 -216.268t-96.9893 -141.267t-166.568 -49.6992zM388.148 892.342q44.5791 0 80.7246 19.8799q36.1445 19.8799 57.2295 53.6152q21.084 33.7354 21.084 75.9043q0 69.8809 -46.085 110.242q-46.085 40.3623 -112.953 40.3623
q-68.6758 0 -113.856 -40.3623q-45.1816 -40.3613 -45.1816 -110.242q0 -69.2773 45.1816 -109.339q45.1807 -40.0605 113.856 -40.0605z" />
    <glyph glyph-name="uni2080" unicode="&#x2080;" horiz-adv-x="818" 
d="M409 -24q-139 0 -223 101.5t-84 306.5q0 204 84 305t223 101q138 0 223 -101t85 -305q0 -205 -85 -306.5t-223 -101.5zM409 66q101 0 154 83t53 235t-53 234.5t-154 82.5q-100 0 -153 -82.5t-53 -234.5t53 -235t153 -83z" />
    <glyph glyph-name="uni2081" unicode="&#x2081;" horiz-adv-x="517" 
d="M238 759h76v-759h-94v648q-29 -19 -60.5 -30t-63.5 -12v92q38 5 74 19.5t68 41.5z" />
    <glyph glyph-name="uni2082" unicode="&#x2082;" horiz-adv-x="802" 
d="M128 0v112q0 98 47.5 149.5t126.5 83.5l149 59q58 23 87 59.5t29 91.5q0 59 -40.5 95.5t-111.5 36.5t-116.5 -30.5t-52.5 -91.5h-105q5 66 39.5 111.5t94.5 69.5t139 24q73 0 130.5 -28.5t91 -78t33.5 -114.5q0 -87 -48 -141.5t-130 -88.5l-153 -61q-58 -22 -87 -53.5
t-29 -81.5v-36h440v-87h-534z" />
    <glyph glyph-name="uni2083" unicode="&#x2083;" horiz-adv-x="802" 
d="M400 -24q-76 0 -143 28t-109 82.5t-42 134.5h96q2 -77 59 -118t139 -41q84 0 130.5 41.5t46.5 102.5q0 59 -44 96t-146 37h-86v75h58q88 0 138.5 35t50.5 96q0 55 -41 92t-117 37q-58 0 -103.5 -23.5t-62.5 -87.5h-96q14 106 86.5 151.5t173.5 45.5q113 0 187 -58
t74 -148q0 -60 -34 -102.5t-98 -65.5q71 -20 116.5 -67t45.5 -121q0 -97 -75 -159.5t-204 -62.5z" />
    <glyph glyph-name="uni2084" unicode="&#x2084;" horiz-adv-x="711" 
d="M449 767h88v-503h131v-80h-131v-184h-93v184h-392v73zM448 619l-284 -362h284v362z" />
    <glyph glyph-name="uni2085" unicode="&#x2085;" horiz-adv-x="777" 
d="M392 -24q-72 0 -131 26t-94.5 76t-36.5 123h94q0 -69 49 -104t119 -35q81 0 127.5 50t46.5 123q0 145 -187 145h-203l33 367h419v-86h-343l19 33l-25 -264l-13 11q29 6 66 9t66 3q123 0 194.5 -55t71.5 -163q0 -73 -33 -132t-94 -93t-145 -34z" />
    <glyph glyph-name="uni2086" unicode="&#x2086;" horiz-adv-x="776" 
d="M404 -24q-91 0 -159 49.5t-105.5 135.5t-37.5 194q0 191 84.5 298t230.5 107q101 0 165 -56t73 -148h-102q-9 55 -41 86.5t-93 31.5q-103 0 -162 -89t-59 -244q0 -23 1 -52t5 -54q5 80 36.5 126t79.5 65t101 19q103 0 171.5 -66t68.5 -170t-71 -168.5t-186 -64.5zM404 62
q68 0 113.5 40.5t45.5 109.5q0 71 -45.5 110.5t-113.5 39.5t-113 -42.5t-45 -107.5q0 -69 45 -109.5t113 -40.5z" />
    <glyph glyph-name="uni2087" unicode="&#x2087;" horiz-adv-x="599" 
d="M90 0l363 667h-405v90h516v-87l-349 -670h-125z" />
    <glyph glyph-name="uni2088" unicode="&#x2088;" horiz-adv-x="828" 
d="M414 -24q-133 0 -218.5 62t-85.5 156q0 86 65.5 134.5t164.5 48.5q17 0 33.5 -2t35.5 -7v-27q-90 0 -145.5 -42.5t-55.5 -97.5q0 -67 59 -103t147 -36q98 0 152 31.5t54 82.5q0 41 -28.5 67t-78.5 45l-209 79q-38 15 -77 40t-65 63t-26 90q0 88 73.5 144t204.5 56
q80 0 142.5 -27.5t98 -74.5t35.5 -108q0 -70 -53 -123t-154 -53q-16 0 -31 2.5t-33 7.5v30q73 0 123 36.5t50 94.5q0 56 -49 92.5t-129 36.5q-77 0 -128.5 -34.5t-51.5 -83.5q0 -40 27.5 -64.5t76.5 -42.5l208 -79q83 -32 128 -74.5t45 -116.5q0 -89 -80 -146t-225 -57z" />
    <glyph glyph-name="uni2089" unicode="&#x2089;" horiz-adv-x="791" 
d="M394 -24q-74 0 -132.5 31t-92 84.5t-33.5 122.5h98q2 -70 43.5 -111t114.5 -41q107 0 154 90.5t47 243.5q0 23 -1 43.5t-5 45.5q-12 -97 -71 -145.5t-146 -48.5q-101 0 -169.5 66.5t-68.5 169.5q0 106 70.5 169.5t185.5 63.5q87 0 155 -46.5t107 -131t39 -199.5
q0 -187 -71.5 -297t-223.5 -110zM388 374q67 0 113 43t46 107q0 70 -46 110t-113 40q-68 0 -113.5 -40t-45.5 -110t45.5 -110t113.5 -40z" />
    <glyph glyph-name="uni20A8" unicode="&#x20a8;" horiz-adv-x="1161" 
d="M184 1160v96h830v-96h-830zM184 856v98h830v-98h-830zM184 592h114l648 -592h-220l-542 494v98zM238 592h68q182 0 267 82.5t85 203.5q0 122 -85 202t-267 80h-68v70h68q176 0 291.5 -45.5t172 -125t56.5 -181.5q0 -106 -51.5 -193t-166 -139t-302.5 -52h-68v98z" />
    <glyph glyph-name="Euro" unicode="&#x20ac;" horiz-adv-x="1226" 
d="M672 -24q-163 0 -282 83.5t-183.5 232t-64.5 344.5q0 209 70.5 352t190.5 216.5t269 73.5q197 0 318.5 -100.5t167.5 -261.5l-168 -34q-39 117 -123.5 186.5t-194.5 69.5q-95 0 -177.5 -56.5t-133.5 -168.5t-51 -277q0 -150 40.5 -267t121 -184t200.5 -67q144 0 231 80
t87 210h170q0 -135 -62 -231.5t-172 -148.5t-254 -52zM52 482v98h684v-98h-684zM52 684v98h684v-98h-684z" />
    <glyph glyph-name="trademark" unicode="&#x2122;" horiz-adv-x="1348" 
d="M6 1519v67h489v-67h-223l17 18v-579h-78v579l18 -18h-223zM602 1586h112l216 -434h-8l216 434h109v-628h-79v547h14l-230 -468h-52l-229 465h9v-544h-78v628z" />
    <glyph glyph-name="oneeighth" unicode="&#x215b;" horiz-adv-x="1889" 
d="M239 1359h75v-759h-94v648q-29 -20 -60.5 -30.5t-63.5 -11.5v92q38 5 74 19.5t69 41.5zM250.292 -16.4229l953.229 1365.35h122.52l-956.292 -1365.35h-119.457zM1476 -24q-133 0 -218 62t-85 156q0 86 65 134.5t165 48.5q17 0 33 -1.5t35 -6.5v-28q-90 0 -145.5 -42
t-55.5 -98q0 -67 59.5 -103t146.5 -36q98 0 152 32t54 82q0 41 -28.5 67.5t-78.5 44.5l-208 80q-38 14 -77.5 39t-65.5 63t-26 90q0 88 73.5 144.5t204.5 56.5q81 0 143 -27.5t97.5 -75t35.5 -108.5q0 -70 -53 -122.5t-154 -52.5q-16 0 -31 2.5t-33 6.5v30q74 0 124 36.5
t50 95.5q0 56 -49.5 92.5t-129.5 36.5q-76 0 -128 -34.5t-52 -83.5q0 -40 28 -64.5t77 -43.5l208 -79q83 -31 127.5 -74t44.5 -116q0 -89 -80.5 -146.5t-224.5 -57.5z" />
    <glyph glyph-name="threeeighths" unicode="&#x215c;" horiz-adv-x="2174" 
d="M400 576q-76 0 -143 28t-109 83t-42 134h96q2 -77 59 -118t139 -41q84 0 130.5 41.5t46.5 102.5q0 59 -44 96.5t-146 37.5h-86v75h58q88 0 138.5 35t50.5 96q0 54 -41 91.5t-117 37.5q-58 0 -103.5 -24t-62.5 -87h-96q14 105 86.5 151t173.5 46q113 0 187 -58t74 -149
q0 -59 -34 -101.5t-98 -65.5q71 -21 116.5 -67.5t45.5 -120.5q0 -97 -75 -160t-204 -63zM535.292 -16.4229l953.229 1365.35h122.52l-956.292 -1365.35h-119.457zM1761 -24q-133 0 -218 62t-85 156q0 86 65 134.5t165 48.5q17 0 33 -1.5t35 -6.5v-28q-90 0 -145.5 -42
t-55.5 -98q0 -67 59.5 -103t146.5 -36q98 0 152 32t54 82q0 41 -28.5 67.5t-78.5 44.5l-208 80q-38 14 -77.5 39t-65.5 63t-26 90q0 88 73.5 144.5t204.5 56.5q81 0 143 -27.5t97.5 -75t35.5 -108.5q0 -70 -53 -122.5t-154 -52.5q-16 0 -31 2.5t-33 6.5v30q74 0 124 36.5
t50 95.5q0 56 -49.5 92.5t-129.5 36.5q-76 0 -128 -34.5t-52 -83.5q0 -40 28 -64.5t77 -43.5l208 -79q83 -31 127.5 -74t44.5 -116q0 -89 -80.5 -146.5t-224.5 -57.5z" />
    <glyph glyph-name="fiveeighths" unicode="&#x215d;" horiz-adv-x="2148" 
d="M391 576q-71 0 -130.5 26t-94.5 76.5t-36 122.5h93q0 -68 49 -103.5t119 -35.5q82 0 128.5 50t46.5 123q0 146 -188 146h-202l33 366h418v-85h-343l20 32l-26 -264l-12 11q29 7 66 9.5t65 2.5q123 0 194.5 -54.5t71.5 -163.5q0 -73 -33 -132t-94 -93t-145 -34z
M509.292 -16.4229l953.229 1365.35h122.52l-956.292 -1365.35h-119.457zM1735 -24q-133 0 -218 62t-85 156q0 86 65 134.5t165 48.5q17 0 33 -1.5t35 -6.5v-28q-90 0 -145.5 -42t-55.5 -98q0 -67 59.5 -103t146.5 -36q98 0 152 32t54 82q0 41 -28.5 67.5t-78.5 44.5l-208 80
q-38 14 -77.5 39t-65.5 63t-26 90q0 88 73.5 144.5t204.5 56.5q81 0 143 -27.5t97.5 -75t35.5 -108.5q0 -70 -53 -122.5t-154 -52.5q-16 0 -31 2.5t-33 6.5v30q74 0 124 36.5t50 95.5q0 56 -49.5 92.5t-129.5 36.5q-76 0 -128 -34.5t-52 -83.5q0 -40 28 -64.5t77 -43.5
l208 -79q83 -31 127.5 -74t44.5 -116q0 -89 -80.5 -146.5t-224.5 -57.5z" />
    <glyph glyph-name="seveneighths" unicode="&#x215e;" horiz-adv-x="1971" 
d="M90 600l363 667h-405v90h516v-87l-349 -670h-125zM332.292 -16.4229l953.229 1365.35h122.52l-956.292 -1365.35h-119.457zM1558 -24q-133 0 -218 62t-85 156q0 86 65 134.5t165 48.5q17 0 33 -1.5t35 -6.5v-28q-90 0 -145.5 -42t-55.5 -98q0 -67 59.5 -103t146.5 -36
q98 0 152 32t54 82q0 41 -28.5 67.5t-78.5 44.5l-208 80q-38 14 -77.5 39t-65.5 63t-26 90q0 88 73.5 144.5t204.5 56.5q81 0 143 -27.5t97.5 -75t35.5 -108.5q0 -70 -53 -122.5t-154 -52.5q-16 0 -31 2.5t-33 6.5v30q74 0 124 36.5t50 95.5q0 56 -49.5 92.5t-129.5 36.5
q-76 0 -128 -34.5t-52 -83.5q0 -40 28 -64.5t77 -43.5l208 -79q83 -31 127.5 -74t44.5 -116q0 -89 -80.5 -146.5t-224.5 -57.5z" />
    <glyph glyph-name="partialdiff" unicode="&#x2202;" horiz-adv-x="1103" 
d="M547 -24q-116 0 -213.5 62.5t-156.5 176.5t-59 268q0 152 57 263.5t151 172.5t205 61q109 0 194 -58t134 -161.5t49 -241.5h-59q-1 111 -44.5 182.5t-108.5 106t-133 34.5q-79 0 -143.5 -43.5t-103 -124.5t-38.5 -194q0 -112 38 -193.5t103 -126t147 -44.5q88 0 148 50
t93.5 137t39.5 197q8 164 -17 313.5t-81 280.5t-141 239t-197 189l120 96q105 -83 191.5 -196t148.5 -245t96 -275.5t34 -287.5q0 -147 -34.5 -265t-96 -201t-144 -127.5t-179.5 -44.5z" />
    <glyph glyph-name="emptyset" unicode="&#x2205;" 
d="M601 170q-108 0 -196.5 52.5t-141 141t-52.5 195.5q0 108 52.5 196t141 140.5t196.5 52.5t196 -52.5t140.5 -140.5t52.5 -196q0 -107 -52.5 -195.5t-140.5 -141t-196 -52.5zM601 272q79 0 143.5 39t103.5 104t39 144t-39 143.5t-103.5 103.5t-143.5 39t-144 -39
t-104 -103.5t-39 -143.5t39 -144t104 -104t144 -39zM1005 1028l64 -66l-872 -873l-66 65z" />
    <glyph glyph-name="product" unicode="&#x220f;" horiz-adv-x="1315" 
d="M202 -470v1726h910v-1726h-155v1645l48 -52h-697l48 52v-1645h-154z" />
    <glyph glyph-name="summation" unicode="&#x2211;" horiz-adv-x="1113" 
d="M556 393l-454 730v133h910v-133h-857l75 52l495 -782h-169zM556 393h169l-495 -782l-75 51h857v-133h-910v133z" />
    <glyph glyph-name="minus" unicode="&#x2212;" horiz-adv-x="1054" 
d="M36 562h982v-134h-982v134z" />
    <glyph glyph-name="DivisionSlash" unicode="&#x2215;" horiz-adv-x="546" 
d="M-266.708 -16.4229l953.229 1365.35h122.52l-956.292 -1365.35h-119.457z" />
    <glyph glyph-name="radical" unicode="&#x221a;" horiz-adv-x="1142" 
d="M471 1l-192 458l54 -56l-287 -59l-36 93l393 107l176 -429h-61l474 1567h140l-530 -1681h-131z" />
    <glyph glyph-name="infinity" unicode="&#x221e;" horiz-adv-x="1354" 
d="M365 190q-78 0 -150 32t-117.5 99t-45.5 171q0 105 45.5 172t117.5 98.5t150 31.5q60 0 122.5 -20.5t116.5 -70.5t88 -138h-31q34 88 88 138t117 70.5t122 20.5q79 0 150.5 -31.5t117 -98.5t45.5 -172q0 -104 -45.5 -171t-117 -99t-150.5 -32q-59 0 -122 20.5
t-116.5 70.5t-87.5 138h31q-34 -88 -88.5 -138t-117 -70.5t-122.5 -20.5zM387 292q86 0 157.5 55.5t116.5 172.5v-55q-45 117 -116.5 172.5t-157.5 55.5q-54 0 -102 -21.5t-78.5 -66t-30.5 -113.5q0 -68 30.5 -112.5t78.5 -66t102 -21.5zM966 292q54 0 102.5 21.5t78.5 66
t30 112.5q0 69 -30 113.5t-78.5 66t-102.5 21.5q-86 0 -157.5 -55.5t-116.5 -172.5v55q45 -117 116.5 -172.5t157.5 -55.5z" />
    <glyph glyph-name="integral" unicode="&#x222b;" horiz-adv-x="952" 
d="M52 -403l39 124q29 -11 58 -17t56 -6q32 0 64.5 12t56.5 45t28 95l87 1254q7 95 47.5 155.5t104.5 89.5t140 29q41 0 83 -6t83 -18l-39 -124q-28 12 -57.5 18t-56.5 6q-32 0 -64.5 -12t-56 -45t-28.5 -95l-87 -1254q-6 -95 -47 -156t-105 -90t-140 -29q-40 0 -82.5 6
t-83.5 18z" />
    <glyph glyph-name="approxequal" unicode="&#x2248;" horiz-adv-x="1029" 
d="M199 499l-83 44q34 108 86 162t125 54q34 0 76.5 -13t116.5 -42q74 -28 111 -40.5t65 -12.5q42 0 75 26t61 86l81 -51q-34 -105 -90.5 -155t-127.5 -50q-35 0 -78.5 13.5t-117.5 41.5q-45 18 -77.5 29.5t-56.5 17.5t-42 6q-37 0 -67.5 -25.5t-56.5 -90.5zM199 161l-83 44
q34 108 86 162t125 54q34 0 76.5 -13t116.5 -42q74 -28 111 -40.5t65 -12.5q42 0 75 26t61 86l81 -52q-34 -105 -91 -154.5t-127 -49.5q-35 0 -78.5 13t-117.5 41q-45 18 -77.5 30t-56.5 18t-42 6q-37 0 -67.5 -25.5t-56.5 -90.5z" />
    <glyph glyph-name="notequal" unicode="&#x2260;" horiz-adv-x="975" 
d="M158 368h658v-134h-658v134zM158 752h658v-136h-658v136zM278 98l304 806h110l-304 -806h-110z" />
    <glyph glyph-name="lessequal" unicode="&#x2264;" horiz-adv-x="975" 
d="M786 262l-622 250v118l622 250l40 -122l-572 -216v56l572 -210zM150 0v120h658v-120h-658z" />
    <glyph glyph-name="greaterequal" unicode="&#x2265;" horiz-adv-x="975" 
d="M190 262l-42 126l572 210v-56l-572 216l42 122l620 -250v-118zM166 0v120h658v-120h-658z" />
    <glyph glyph-name="lozenge" unicode="&#x25ca;" horiz-adv-x="1027" 
d="M102 628l352 628h122l350 -628l-350 -628h-122zM260 598v60l273 -512h-36l271 512v-60l-271 512h36z" />
    <glyph glyph-name="approxequal.tf" 
d="M285 499l-83 44q34 108 86 162t125 54q34 0 76.5 -13t116.5 -42q74 -28 111 -40.5t65 -12.5q42 0 75 26t61 86l81 -51q-34 -105 -90.5 -155t-127.5 -50q-35 0 -78.5 13.5t-117.5 41.5q-45 18 -77.5 29.5t-56.5 17.5t-42 6q-37 0 -67.5 -25.5t-56.5 -90.5zM285 161l-83 44
q34 108 86 162t125 54q34 0 76.5 -13t116.5 -42q74 -28 111 -40.5t65 -12.5q42 0 75 26t61 86l81 -52q-34 -105 -91 -154.5t-127 -49.5q-35 0 -78.5 13t-117.5 41q-45 18 -77.5 30t-56.5 18t-42 6q-37 0 -67.5 -25.5t-56.5 -90.5z" />
    <glyph glyph-name="asciicircum.tf" 
d="M188 490l352 682h122l350 -682h-176l-264 556h58l-266 -556h-176z" />
    <glyph glyph-name="asciitilde.tf" 
d="M276 446l-86 46q33 108 87 165t127 57q36 0 80 -13t122 -43q81 -33 119.5 -43.5t66.5 -10.5q38 0 72 28.5t58 85.5l86 -54q-36 -109 -94.5 -159.5t-133.5 -50.5q-30 0 -76.5 13t-121.5 43q-79 32 -116 43t-66 11q-34 0 -65.5 -26t-58.5 -92z" />
    <glyph glyph-name="cent.tf" 
d="M558 -210v228h134v-228h-134zM558 942v200h134v-200h-134zM626 -24q-115 0 -214.5 62t-160.5 175t-61 267q0 158 61 270t160.5 171t214.5 59q81 0 145.5 -24.5t112.5 -67.5t79.5 -97.5t46.5 -114.5l-160 -14q-25 83 -83.5 131.5t-142.5 48.5q-71 0 -133.5 -40.5
t-101.5 -121t-39 -200.5q0 -111 35.5 -192.5t97.5 -126.5t141 -45q111 0 168.5 54.5t57.5 151.5h160q0 -100 -47 -178t-133.5 -123t-203.5 -45z" />
    <glyph glyph-name="currency.tf" 
d="M600 226q-112 0 -204 55t-147 147.5t-55 205.5q0 111 55 203t147 146.5t204 54.5t203.5 -54.5t146 -146.5t54.5 -203q0 -113 -54.5 -205.5t-146 -147.5t-203.5 -55zM600 372q71 0 130 35t94.5 94.5t35.5 132.5q0 72 -35.5 130.5t-94.5 93t-130 34.5q-72 0 -131 -34.5
t-94 -93t-35 -130.5q0 -73 35 -132.5t94 -94.5t131 -35zM860 814l-80 80l196 194l80 -78zM334 820l-190 188l78 80l190 -188zM866 446l190 -188l-78 -82l-190 190zM334 446l78 -80l-190 -190l-78 82z" />
    <glyph glyph-name="divide.tf" 
d="M250 452v136h698v-136h-698zM598 140q-43 0 -72.5 29t-29.5 69q0 41 29.5 70.5t72.5 29.5q45 0 74.5 -29.5t29.5 -70.5q0 -40 -29.5 -69t-74.5 -29zM598 700q-43 0 -72.5 28t-29.5 70q0 41 29.5 69.5t72.5 28.5q45 0 74.5 -28.5t29.5 -69.5q0 -42 -29.5 -70t-74.5 -28z
" />
    <glyph glyph-name="dollar.tf" 
d="M604 -24q-96 0 -183.5 25.5t-155.5 75.5t-107.5 125t-39.5 174h154q0 -89 44.5 -145.5t120.5 -83.5t171 -27q97 0 163.5 30t100.5 79t34 105q0 75 -46.5 128t-129.5 78l-130 44v140l194 -64q132 -43 209 -122t77 -208q0 -88 -52.5 -169t-158 -133t-265.5 -52zM546 -182
v1606h122v-1606h-122zM592 584l-102 34q-163 56 -248.5 128t-85.5 202q0 146 117 238t339 92q192 0 300.5 -89.5t129.5 -236.5h-154q-13 87 -86 138.5t-192 51.5q-138 0 -212 -56.5t-74 -143.5q0 -69 41.5 -111t126.5 -69l100 -36v-142z" />
    <glyph glyph-name="eight.dnom" horiz-adv-x="827" 
d="M413 -24q-133 0 -218 62t-85 156q0 86 65 134.5t165 48.5q17 0 33 -1.5t35 -6.5v-28q-90 0 -145.5 -42t-55.5 -98q0 -67 59.5 -103t146.5 -36q98 0 152 32t54 82q0 41 -28.5 67.5t-78.5 44.5l-208 80q-38 14 -77.5 39t-65.5 63t-26 90q0 88 73.5 144.5t204.5 56.5
q81 0 143 -27.5t97.5 -75t35.5 -108.5q0 -70 -53 -122.5t-154 -52.5q-16 0 -31 2.5t-33 6.5v30q74 0 124 36.5t50 95.5q0 56 -49.5 92.5t-129.5 36.5q-76 0 -128 -34.5t-52 -83.5q0 -40 28 -64.5t77 -43.5l208 -79q83 -31 127.5 -74t44.5 -116q0 -89 -80.5 -146.5
t-224.5 -57.5z" />
    <glyph glyph-name="eight.numr" horiz-adv-x="827" 
d="M413 576q-133 0 -218 62t-85 156q0 86 65 134.5t165 48.5q17 0 33 -1.5t35 -6.5v-28q-90 0 -145.5 -42t-55.5 -98q0 -67 59.5 -103t146.5 -36q98 0 152 32t54 82q0 41 -28.5 67.5t-78.5 44.5l-208 80q-38 14 -77.5 39t-65.5 63t-26 90q0 88 73.5 144.5t204.5 56.5
q81 0 143 -27.5t97.5 -75t35.5 -108.5q0 -70 -53 -122.5t-154 -52.5q-16 0 -31 2.5t-33 6.5v30q74 0 124 36.5t50 95.5q0 56 -49.5 92.5t-129.5 36.5q-76 0 -128 -34.5t-52 -83.5q0 -40 28 -64.5t77 -43.5l208 -79q83 -31 127.5 -74t44.5 -116q0 -89 -80.5 -146.5
t-224.5 -57.5z" />
    <glyph glyph-name="eight.tf" 
d="M598 -24q-147 0 -260.5 47t-178.5 129t-65 186q0 95 50 163t136.5 104.5t195.5 36.5q30 0 56.5 -3t57.5 -11v-46q-99 0 -173.5 -32.5t-116.5 -85.5t-42 -114q0 -74 44.5 -125.5t121.5 -78t174 -26.5q162 0 253 52t91 136q0 68 -48.5 111.5t-129.5 74.5l-348 132
q-63 24 -127.5 66t-108.5 105t-44 149q0 97 55 172t158.5 117.5t248.5 42.5q133 0 237 -45.5t163.5 -124t59.5 -178.5q0 -78 -39.5 -144.5t-116.5 -107t-190 -40.5q-27 0 -51 3.5t-53 12.5v50q80 0 145 27.5t103 76.5t38 114q0 62 -37.5 110.5t-104 76t-154.5 27.5
q-85 0 -152.5 -26.5t-106.5 -71t-39 -98.5q0 -67 45.5 -107.5t126.5 -70.5l348 -132q138 -52 211 -123t73 -193q0 -99 -60 -175.5t-173 -119.5t-273 -43z" />
    <glyph glyph-name="equal.tf" 
d="M270 368h660v-134h-660v134zM270 752h660v-136h-660v136z" />
    <glyph glyph-name="Euro.tf" 
d="M666 -24q-163 0 -281 83.5t-181.5 232t-63.5 344.5q0 209 70 352t187.5 216.5t260.5 73.5q191 0 308 -100.5t160 -261.5l-168 -34q-36 117 -117 186.5t-183 69.5q-89 0 -169 -56t-130.5 -169t-50.5 -283q0 -147 37.5 -263t115 -182.5t197.5 -66.5q92 0 160.5 36
t106 101.5t37.5 152.5h170q0 -135 -60.5 -231.5t-166 -148.5t-239.5 -52zM50 482v98h656v-98h-656zM50 684v98h656v-98h-656z" />
    <glyph glyph-name="five.dnom" horiz-adv-x="776" 
d="M391 -24q-71 0 -130.5 26t-94.5 76.5t-36 122.5h93q0 -68 49 -103.5t119 -35.5q82 0 128.5 50t46.5 123q0 146 -188 146h-202l33 366h418v-85h-343l20 32l-26 -264l-12 11q29 7 66 9.5t65 2.5q123 0 194.5 -54.5t71.5 -163.5q0 -73 -33 -132t-94 -93t-145 -34z" />
    <glyph glyph-name="five.numr" horiz-adv-x="776" 
d="M391 576q-71 0 -130.5 26t-94.5 76.5t-36 122.5h93q0 -68 49 -103.5t119 -35.5q82 0 128.5 50t46.5 123q0 146 -188 146h-202l33 366h418v-85h-343l20 32l-26 -264l-12 11q29 7 66 9.5t65 2.5q123 0 194.5 -54.5t71.5 -163.5q0 -73 -33 -132t-94 -93t-145 -34z" />
    <glyph glyph-name="five.tf" 
d="M586 -24q-119 0 -217 43t-157.5 126.5t-61.5 204.5h158q0 -114 80.5 -172t197.5 -58q134 0 212 82.5t78 203.5q0 119 -79.5 180.5t-232.5 61.5h-338l56 608h696v-142h-572l32 54l-42 -438l-20 18q48 11 110 15.5t110 4.5q203 0 322.5 -91t119.5 -271q0 -122 -55 -219.5
t-156.5 -154t-240.5 -56.5z" />
    <glyph glyph-name="four.dnom" horiz-adv-x="711" 
d="M449 767h87v-503h132v-80h-132v-184h-92v184h-392v73zM447 619l-282 -362h282v362z" />
    <glyph glyph-name="four.numr" horiz-adv-x="711" 
d="M449 1367h87v-503h132v-80h-132v-184h-92v184h-392v73zM447 1219l-282 -362h282v362z" />
    <glyph glyph-name="four.tf" 
d="M738 1274h144v-872l-30 24h236v-120h-234l28 36v-342h-152v342l44 -36h-688v120zM734 1124l64 -12l-566 -728l-4 42h550l-44 -38v736z" />
    <glyph glyph-name="greater.tf" 
d="M336 80l-102 122l618 440v-64l-618 444l102 120l630 -464v-136z" />
    <glyph glyph-name="greaterequal.tf" 
d="M302 262l-42 126l572 210v-56l-572 216l42 122l620 -250v-118zM278 0v120h658v-120h-658z" />
    <glyph glyph-name="i.loclTRK" horiz-adv-x="596" 
d="M212 0v958h156v-958h-156zM187.868 1254.25q0 46.1133 32.3779 79.4727q32.3779 33.3584 81.4346 33.3584t83.3965 -33.3584q34.3408 -33.3594 34.3408 -79.4727t-34.3408 -77.5098q-34.3398 -31.3965 -83.3965 -31.3965t-81.4346 31.8867t-32.3779 77.0195z" />
    <glyph glyph-name="less.tf" 
d="M862 1142l104 -120l-620 -444v64l620 -440l-104 -122l-630 462v136z" />
    <glyph glyph-name="lessequal.tf" 
d="M898 262l-622 250v118l622 250l40 -122l-572 -216v56l572 -210zM262 0v120h658v-120h-658z" />
    <glyph glyph-name="minus.tf" 
d="M106 558h988v-134h-988v134z" />
    <glyph glyph-name="multiply.tf" 
d="M314 110l-108 110l284 286l-284 282l108 110l286 -284l284 284l110 -110l-286 -282l286 -286l-110 -110l-284 284z" />
    <glyph glyph-name="nine.dnom" horiz-adv-x="791" 
d="M394 -24q-74 0 -132.5 31t-91.5 85t-33 123h97q2 -70 44 -111.5t114 -41.5q107 0 154 91t47 243q0 24 -1 44.5t-5 45.5q-12 -98 -71 -146t-146 -48q-101 0 -169.5 66.5t-68.5 169.5q0 106 71 169.5t185 63.5q87 0 155 -47t107 -131.5t39 -199.5q0 -187 -71.5 -297
t-223.5 -110zM388 375q68 0 114 43t46 106q0 70 -46 110.5t-114 40.5t-113 -40.5t-45 -110.5t45 -109.5t113 -39.5z" />
    <glyph glyph-name="nine.numr" horiz-adv-x="791" 
d="M394 576q-74 0 -132.5 31t-91.5 85t-33 123h97q2 -70 44 -111.5t114 -41.5q107 0 154 91t47 243q0 24 -1 44.5t-5 45.5q-12 -98 -71 -146t-146 -48q-101 0 -169.5 66.5t-68.5 169.5q0 106 71 169.5t185 63.5q87 0 155 -47t107 -131.5t39 -199.5q0 -187 -71.5 -297
t-223.5 -110zM388 975q68 0 114 43t46 106q0 70 -46 110.5t-114 40.5t-113 -40.5t-45 -110.5t45 -109.5t113 -39.5z" />
    <glyph glyph-name="nine.tf" 
d="M572 -24q-125 0 -221.5 51t-151.5 140.5t-55 204.5h162q3 -115 72.5 -183.5t189.5 -68.5q118 0 191.5 68t108 192.5t34.5 293.5q0 39 -2 72.5t-8 75.5q-13 -108 -62 -179.5t-125 -107t-171 -35.5q-113 0 -203 50.5t-142.5 139t-52.5 202.5q0 117 54 204t149.5 134.5
t220.5 47.5q109 0 201 -44t160 -126.5t105.5 -197.5t37.5 -258q0 -207 -53 -359t-162 -234.5t-277 -82.5zM562 638q75 0 135 33t94.5 89t34.5 126q0 116 -76 183t-190 67q-112 0 -187 -67t-75 -183q0 -115 75 -181.5t189 -66.5z" />
    <glyph glyph-name="notequal.tf" 
d="M270 368h658v-134h-658v134zM270 752h658v-136h-658v136zM390 98l304 806h110l-304 -806h-110z" />
    <glyph glyph-name="one.dnom" horiz-adv-x="517" 
d="M239 759h75v-759h-94v648q-29 -20 -60.5 -30.5t-63.5 -11.5v92q38 5 74 19.5t69 41.5z" />
    <glyph glyph-name="one.numr" horiz-adv-x="517" 
d="M239 1359h75v-759h-94v648q-29 -20 -60.5 -30.5t-63.5 -11.5v92q38 5 74 19.5t69 41.5z" />
    <glyph glyph-name="one.tf" 
d="M268 0v126h292l-36 -36v1046l52 -22q-58 -51 -125 -78t-133 -30v152q63 9 122.5 33t111.5 69h128v-1170l-38 36h294v-126h-668z" />
    <glyph glyph-name="percent.tf" 
d="M108 0l830 1256h156l-832 -1256h-154zM922 -24q-63 0 -119.5 30.5t-91.5 94t-35 163.5t35 163t91.5 93t119.5 30q64 0 120.5 -30t92 -93t35.5 -163t-35.5 -163.5t-92 -94t-120.5 -30.5zM922 84q56 0 93 43t37 137q0 95 -37 138.5t-93 43.5q-58 0 -95 -43.5t-37 -138.5
q0 -94 37 -137t95 -43zM276 706q-62 0 -118.5 30t-92 93t-35.5 163q0 99 35.5 162.5t92 93.5t118.5 30q64 0 121 -30t93 -93.5t36 -162.5q0 -100 -36 -163t-93 -93t-121 -30zM276 812q57 0 94.5 43t37.5 137q0 95 -37.5 138.5t-94.5 43.5t-93.5 -43.5t-36.5 -138.5
q0 -94 36.5 -137t93.5 -43z" />
    <glyph glyph-name="plus.tf" 
d="M522 982h156v-424h414v-134h-414v-424h-156v424h-412v134h412v424z" />
    <glyph glyph-name="plusminus.tf" 
d="M534 1050h130v-332h308v-106h-308v-332h-130v332h-308v106h308v332zM258 120h684v-120h-684v120z" />
    <glyph glyph-name="uni20A8.tf" 
d="M185 1160v96h830v-96h-830zM185 856v98h830v-98h-830zM185 592h114l648 -592h-220l-542 494v98zM239 592h68q182 0 267 82.5t85 203.5q0 122 -85 202t-267 80h-68v70h68q176 0 291.5 -45.5t172 -125t56.5 -181.5q0 -106 -51.5 -193t-166 -139t-302.5 -52h-68v98z" />
    <glyph glyph-name="seven.dnom" horiz-adv-x="599" 
d="M90 0l363 667h-405v90h516v-87l-349 -670h-125z" />
    <glyph glyph-name="seven.numr" horiz-adv-x="599" 
d="M90 600l363 667h-405v90h516v-87l-349 -670h-125z" />
    <glyph glyph-name="seven.tf" 
d="M162 1256h856v-144l-578 -1112h-208l602 1108h-672v148z" />
    <glyph glyph-name="six.dnom" horiz-adv-x="776" 
d="M403 -24q-91 0 -158.5 50t-105 135.5t-37.5 193.5q0 191 84 298.5t231 107.5q101 0 165 -56.5t73 -147.5h-102q-9 54 -41 86t-93 32q-103 0 -162.5 -89.5t-59.5 -244.5q0 -22 1 -51t5 -55q6 80 37.5 126t79 65.5t100.5 19.5q103 0 172 -66t69 -170q0 -105 -71.5 -169.5
t-186.5 -64.5zM403 62q69 0 114 41t45 109q0 71 -45 111t-114 40q-67 0 -112.5 -43t-45.5 -108q0 -68 45.5 -109t112.5 -41z" />
    <glyph glyph-name="six.numr" horiz-adv-x="776" 
d="M403 576q-91 0 -158.5 50t-105 135.5t-37.5 193.5q0 191 84 298.5t231 107.5q101 0 165 -56.5t73 -147.5h-102q-9 54 -41 86t-93 32q-103 0 -162.5 -89.5t-59.5 -244.5q0 -22 1 -51t5 -55q6 80 37.5 126t79 65.5t100.5 19.5q103 0 172 -66t69 -170q0 -105 -71.5 -169.5
t-186.5 -64.5zM403 662q69 0 114 41t45 109q0 71 -45 111t-114 40q-67 0 -112.5 -43t-45.5 -108q0 -68 45.5 -109t112.5 -41z" />
    <glyph glyph-name="six.tf" 
d="M616 -24q-151 0 -263.5 83t-174.5 225.5t-62 321.5q0 211 63 361.5t180 230.5t279 80q112 0 197 -42.5t136 -118.5t61 -177h-168q-15 90 -68 143t-154 53q-172 0 -269 -148.5t-97 -405.5q0 -37 2 -85.5t6 -90.5q9 133 61.5 209.5t131.5 108.5t167 32q113 0 203 -50
t142.5 -138.5t52.5 -203.5q0 -116 -53.5 -203.5t-149.5 -136t-223 -48.5zM616 120q113 0 188.5 67t75.5 181q0 117 -75.5 183.5t-188.5 66.5q-75 0 -134.5 -32.5t-94.5 -89t-35 -128.5q0 -114 76 -181t188 -67z" />
    <glyph glyph-name="sterling.tf" 
d="M146 90v46q77 0 111.5 44.5t34.5 135.5v548q0 130 41 222.5t123 142t204 49.5q141 0 230.5 -75.5t113.5 -224.5h-154q-13 81 -66 119.5t-124 38.5q-97 0 -154.5 -65.5t-57.5 -206.5v-540q0 -123 -63 -178.5t-239 -55.5zM90 0v136h650q98 0 143.5 41.5t58.5 128.5h166
q-10 -141 -91 -223.5t-275 -82.5h-652zM112 534v110h698v-110h-698z" />
    <glyph glyph-name="three.dnom" horiz-adv-x="802" 
d="M400 -24q-76 0 -143 28t-109 83t-42 134h96q2 -77 59 -118t139 -41q84 0 130.5 41.5t46.5 102.5q0 59 -44 96.5t-146 37.5h-86v75h58q88 0 138.5 35t50.5 96q0 54 -41 91.5t-117 37.5q-58 0 -103.5 -24t-62.5 -87h-96q14 105 86.5 151t173.5 46q113 0 187 -58t74 -149
q0 -59 -34 -101.5t-98 -65.5q71 -21 116.5 -67.5t45.5 -120.5q0 -97 -75 -160t-204 -63z" />
    <glyph glyph-name="three.numr" horiz-adv-x="802" 
d="M400 576q-76 0 -143 28t-109 83t-42 134h96q2 -77 59 -118t139 -41q84 0 130.5 41.5t46.5 102.5q0 59 -44 96.5t-146 37.5h-86v75h58q88 0 138.5 35t50.5 96q0 54 -41 91.5t-117 37.5q-58 0 -103.5 -24t-62.5 -87h-96q14 105 86.5 151t173.5 46q113 0 187 -58t74 -149
q0 -59 -34 -101.5t-98 -65.5q71 -21 116.5 -67.5t45.5 -120.5q0 -97 -75 -160t-204 -63z" />
    <glyph glyph-name="three.tf" 
d="M606 -24q-95 0 -183 26.5t-157 78t-109.5 127.5t-40.5 176h162q2 -86 46 -145t117.5 -89t164.5 -30q138 0 216 68t78 170q0 65 -32.5 115t-102 78.5t-181.5 28.5h-144v124h98q144 0 228 58t84 160q0 90 -67.5 152t-192.5 62q-99 0 -174.5 -39.5t-101.5 -144.5h-162
q16 117 76.5 189t153 104.5t204.5 32.5q124 0 221.5 -44t154 -121t56.5 -177q0 -99 -56.5 -169.5t-163.5 -108.5q120 -34 195 -112t75 -200q0 -108 -56 -191.5t-159.5 -131t-246.5 -47.5z" />
    <glyph glyph-name="two.dnom" horiz-adv-x="802" 
d="M128 0v112q0 98 47.5 149.5t126.5 82.5l149 60q58 23 86.5 60t28.5 92q0 58 -40 94.5t-111 36.5q-72 0 -117 -30.5t-52 -91.5h-104q4 66 38.5 111.5t94 69.5t139.5 24q73 0 130.5 -28t91 -77.5t33.5 -114.5q0 -88 -47.5 -142.5t-130.5 -88.5l-153 -61q-58 -22 -87 -53.5
t-29 -81.5v-36h440v-87h-534z" />
    <glyph glyph-name="two.numr" horiz-adv-x="802" 
d="M128 600v112q0 98 47.5 149.5t126.5 82.5l149 60q58 23 86.5 60t28.5 92q0 58 -40 94.5t-111 36.5q-72 0 -117 -30.5t-52 -91.5h-104q4 66 38.5 111.5t94 69.5t139.5 24q73 0 130.5 -28t91 -77.5t33.5 -114.5q0 -88 -47.5 -142.5t-130.5 -88.5l-153 -61
q-58 -22 -87 -53.5t-29 -81.5v-36h440v-87h-534z" />
    <glyph glyph-name="two.tf" 
d="M154 0v186q0 109 35 182t99.5 121t151.5 83l248 98q96 39 145 100t49 152q0 96 -67 157t-187 61q-117 0 -192.5 -50.5t-87.5 -151.5h-172q6 109 63 185t156 115.5t231 39.5q122 0 218 -47t151 -129.5t55 -189.5q0 -97 -36 -169t-102 -124t-156 -89l-256 -102
q-96 -39 -143 -90t-47 -134v-60h728v-144h-884z" />
    <glyph glyph-name="yen.tf" 
d="M518 0v516l-440 740h186l354 -610h-40l358 610h186l-446 -740v-516h-158zM260 202v98h678v-98h-678zM260 400v98h678v-98h-678z" />
    <glyph glyph-name="zero.dnom" horiz-adv-x="796" 
d="M398 -24q-133 0 -214.5 98t-81.5 295t81.5 294.5t214.5 97.5t215 -97.5t82 -294.5t-82 -295t-215 -98zM398 62q98 0 148.5 80.5t50.5 226.5t-50.5 226t-148.5 80q-97 0 -148 -80t-51 -226t51 -226.5t148 -80.5z" />
    <glyph glyph-name="zero.numr" horiz-adv-x="796" 
d="M398 576q-133 0 -214.5 98t-81.5 295t81.5 294.5t214.5 97.5t215 -97.5t82 -294.5t-82 -295t-215 -98zM398 662q98 0 148.5 80.5t50.5 226.5t-50.5 226t-148.5 80q-97 0 -148 -80t-51 -226t51 -226.5t148 -80.5z" />
    <glyph glyph-name="zero.tf" 
d="M600 -24q-148 0 -258.5 72t-172 217t-61.5 363t61.5 362.5t172 216t258.5 71.5q147 0 258 -71.5t172.5 -216t61.5 -362.5t-61.5 -363t-172.5 -217t-258 -72zM600 120q162 0 246 132.5t84 375.5t-84 375.5t-246 132.5q-160 0 -245 -132.5t-85 -375.5t85 -375.5t245 -132.5
z" />
    </font>
</defs>
</svg>
